Un divano a Tunisi-Un divan à Full Torrent Magnet Download

Download Torrent Un divano a Tunisi-Un divan à Movie Full in HD Result. Movie Un divano a Tunisi-Un divan à Torrent Download full. Movie Un divano a Tunisi-Un divan à torrent Magnet Download Full. Un divano a Tunisi-Un divan à Full Movie Torrent Download And Magnet Download For your PC And Mobiles. Latest Movie Un divano a Tunisi-Un divan à Download Link In Bottom.

Torrent And Magnet Links Below

Regista: Manele Labidi

Genere: Commedia

Anno: 2019

Paese: Francia

Durata: 88 min

Data di uscita: 08 ottobre 2020

Distribuzione: BIM Distribuzione

Golshifteh Farahani, Majd Mastoura, Hichem Yacoubi, Moncef Ajengui, Ramla Ayari, Amen Arbi, Feryel Chammari

Un divano a Tunisi, film diretto da Manele Labidi, è la storia della 35enne Selma Derwish (Golshifteh Farahani), giovane donna dal carattere forte e indipendente cresciuta insieme al padre in Francia, dove si è laureata in psicoanalisi. Decide di tornare nella sua città d’origine, Tunisi, per aprire uno studio privato, ma la Tunisia reduce dalla Primavera araba non è la Francia e forse non è ancora pronta a una donna psicoanalista. Ben presto Selma si scontra con un ambiente per nulla favorevole: i suoi parenti provano a scoraggiarla e il suo studio inizia a essere popolati dal pazienti eccentrici. È così che la donna si imbatte in pregiudizi, caos e ignoranza, che finora non aveva mai preso in considerazione.

After years abroad in Paris, Selma returns to Tunis with the dream of opening up her own psychotherapy practice.




General

Unique ID : 278362796520906178422243327513395678525 (0xD16AB97A4B18F93D5C8B7166541F4D3D)

Complete name : Un divano a Tunisi-Un divan à Tunis (2019) ITA-FRE Ac3 5.1 BDRip 1080p H264 [ArMor].mkv

Format : Matroska

Format version : Version 4

File size : 3.54 GiB

Duration : 1 h 27 min

Overall bit rate : 5 776 kb/s

Encoded date : UTC 2021-01-25 13:53:48

Writing application : mkvmerge v52.0.0 (‘Secret For The Mad’) 64-bit

Writing library : libebml v1.4.1 + libmatroska v1.6.2 / Lavf58.29.100

Video

ID : 1

Format : AVC

Format/Info : Advanced Video Codec

Format profile : [email protected]
Format settings : CABAC / 4 Ref Frames

Format settings, CABAC : Yes

Format settings, Reference frames : 4 frames

Codec ID : V_MPEG4/ISO/AVC

Duration : 1 h 27 min

Bit rate : 5 000 kb/s

Width : 1 920 pixels

Height : 800 pixels

Display aspect ratio : 2.40:1

Frame rate mode : Constant

Frame rate : 23.976 (24000/1001) FPS

Color space : YUV

Chroma subsampling : 4:2:0

Bit depth : 8 bits

Scan type : Progressive

Bits/(Pixel*Frame) : 0.136

Stream size : 2.99 GiB (84%)

Writing library : x264 core 157 r2935 545de2f

Encoding settings : cabac=1 / ref=2 / deblock=1:0:0 / analyse=0x1:0x111 / me=hex / subme=6 / psy=1 / psy_rd=1.00:0.00 / mixed_ref=1 / me_range=16 / chroma_me=1 / trellis=1 / 8x8dct=0 / cqm=0 / deadzone=21,11 / fast_pskip=1 / chroma_qp_offset=-2 / threads=12 / lookahead_threads=2 / sliced_threads=0 / nr=0 / decimate=1 / interlaced=0 / bluray_compat=0 / constrained_intra=0 / bframes=3 / b_pyramid=2 / b_adapt=1 / b_bias=0 / direct=1 / weightb=1 / open_gop=0 / weightp=1 / keyint=240 / keyint_min=24 / scenecut=40 / intra_refresh=0 / rc_lookahead=30 / rc=abr / mbtree=1 / bitrate=5000 / ratetol=1.0 / qcomp=0.60 / qpmin=0 / qpmax=69 / qpstep=4 / vbv_maxrate=50000 / vbv_bufsize=62500 / nal_hrd=none / filler=0 / ip_ratio=1.40 / aq=1:1.00

Default : Yes

Forced : No

Color range : Limited

Color primaries : BT.709

Transfer characteristics : BT.709

Matrix coefficients : BT.709

Audio #1

ID : 2

Format : AC-3

Format/Info : Audio Coding 3

Commercial name : Dolby Digital

Codec ID : A_AC3

Duration : 1 h 27 min

Bit rate mode : Constant

Bit rate : 448 kb/s

Channel(s) : 6 channels

Channel layout : L R C LFE Ls Rs

Sampling rate : 48.0 kHz

Frame rate : 31.250 FPS (1536 SPF)

Compression mode : Lossy

Stream size : 281 MiB (8%)

Title : DTS

Language : Italian

Service kind : Complete Main

Default : Yes

Forced : No

Audio #2

ID : 3

Format : AC-3

Format/Info : Audio Coding 3

Commercial name : Dolby Digital

Codec ID : A_AC3

Duration : 1 h 27 min

Bit rate mode : Constant

Bit rate : 448 kb/s

Channel(s) : 6 channels

Channel layout : L R C LFE Ls Rs

Sampling rate : 48.0 kHz

Frame rate : 31.250 FPS (1536 SPF)

Compression mode : Lossy

Stream size : 281 MiB (8%)

Title : DTS

Language : French

Service kind : Complete Main

Default : No

Forced : No


Un divano a Tunisi-Un divan àDownload Torrent Magnet

#divano #TunisiUn #divan