Twelve.Monkeys.1995.1080p.Blu Full Torrent Magnet Download

Download Torrent Twelve.Monkeys.1995.1080p.Blu Movie Full in HD Result. Movie Twelve.Monkeys.1995.1080p.Blu Torrent Download full. Movie Twelve.Monkeys.1995.1080p.Blu torrent Magnet Download Full. Twelve.Monkeys.1995.1080p.Blu Full Movie Torrent Download And Magnet Download For your PC And Mobiles. Latest Movie Twelve.Monkeys.1995.1080p.Blu Download Link In Bottom.

Torrent And Magnet Links Below







Code:

Format : Matroska

Format version : Version 4

File size : 5.32 GiB

Duration : 2 h 9 min

Overall bit rate : 5 883 kb/s

Video
Format : HEVC

Format/Info : High Efficiency Video Coding

Format profile : Main [email protected]@Main

Codec ID : V_MPEGH/ISO/HEVC

Duration : 2 h 9 min

Bit rate : 4 794 kb/s

Width : 1 920 pixels

Height : 1 040 pixels

Display aspect ratio : 1.85:1

Frame rate mode : Constant

Frame rate : 23.976 (24000/1001) FPS

Color space : YUV

Chroma subsampling : 4:2:0

Bit depth : 10 bits

Bits/(Pixel*Frame) : 0.100

Stream size : 4.34 GiB (81%)

Writing library : x265 3.0_Au+14-c7e5878bdd31:[Windows][GCC 8.3.0][64 bit] 10bit

Encoding settings : cpuid=1111039 / frame-threads=4 / numa-pools=16 / wpp / no-pmode / no-pme / no-psnr / no-ssim / log-level=2 / input-csp=1 / input-res=1920×1040 / interlace=0 / total-frames=186334 / level-idc=0 / high-tier=1 / uhd-bd=0 / ref=4 / no-allow-non-conformance / no-repeat-headers / annexb / no-aud / no-hrd / info / hash=0 / no-temporal-layers / open-gop / min-keyint=23 / keyint=250 / gop-lookahead=0 / bframes=4 / b-adapt=2 / b-pyramid / bframe-bias=0 / rc-lookahead=25 / lookahead-slices=4 / scenecut=40 / radl=0 / no-splice / no-intra-refresh / ctu=64 / min-cu-size=8 / rect / no-amp / max-tu-size=32 / tu-inter-depth=1 / tu-intra-depth=1 / limit-tu=0 / rdoq-level=2 / dynamic-rd=0.00 / no-ssim-rd / signhide / no-tskip / nr-intra=0 / nr-inter=0 / no-constrained-intra / strong-intra-smoothing / max-merge=3 / limit-refs=3 / limit-modes / me=3 / subme=3 / merange=57 / temporal-mvp / weightp / no-weightb / no-analyze-src-pics / deblock=-3:-3 / sao / no-sao-non-deblock / rd=4 / no-early-skip / rskip / no-fast-intra / no-tskip-fast / no-cu-lossless / no-b-intra / no-splitrd-skip / rdpenalty=0 / psy-rd=2.00 / psy-rdoq=1.00 / no-rd-refine / no-lossless / cbqpoffs=0 / crqpoffs=0 / rc=crf / crf=21.0 / qcomp=0.60 / qpstep=4 / stats-write=0 / stats-read=0 / ipratio=1.40 / pbratio=1.30 / aq-mode=3 / aq-strength=1.00 / cutree / zone-count=0 / no-strict-cbr / qg-size=32 / no-rc-grain / qpmax=69 / qpmin=0 / no-const-vbv / sar=0 / overscan=0 / videoformat=5 / range=0 / colorprim=2 / transfer=2 / colormatrix=2 / chromaloc=0 / display-window=0 / max-cll=0,0 / min-luma=0 / max-luma=1023 / log2-max-poc-lsb=8 / vui-timing-info / vui-hrd-info / slices=1 / no-opt-qp-pps / no-opt-ref-list-length-pps / no-multi-pass-opt-rps / scenecut-bias=0.05 / no-opt-cu-delta-qp / no-aq-motion / no-hdr / no-hdr-opt / no-dhdr10-opt / no-idr-recovery-sei / analysis-reuse-level=5 / scale-factor=0 / refine-intra=0 / refine-inter=0 / refine-mv=0 / refine-ctu-distortion=0 / no-limit-sao / ctu-info=0 / no-lowpass-dct / refine-analysis-type=0 / copy-pic=1 / max-ausize-factor=1.0 / no-dynamic-refine / no-single-sei / no-hevc-aq / no-svt / qp-adaptation-range=1.00

Default : Yes

Forced : No

Audio #1
Format : E-AC-3

Format/Info : Enhanced AC-3

Commercial name : Dolby Digital Plus

Codec ID : A_EAC3

Duration : 2 h 9 min

Bit rate mode : Constant

Bit rate : 768 kb/s

Channel(s) : 6 channels

Channel layout : L R C LFE Ls Rs

Sampling rate : 48.0 kHz

Frame rate : 31.250 FPS (1536 SPF)

Compression mode : Lossy

Stream size : 711 MiB (13%)

Title : E-AC-3

Language : English

Service kind : Complete Main

Default : Yes

Forced : Yes

Audio #2
Format : AC-3

Format/Info : Audio Coding 3

Commercial name : Dolby Digital

Codec ID : A_AC3

Duration : 2 h 9 min

Bit rate mode : Constant

Bit rate : 320 kb/s

Channel(s) : 2 channels

Channel layout : L R

Sampling rate : 48.0 kHz

Frame rate : 31.250 FPS (1536 SPF)

Compression mode : Lossy

Stream size : 296 MiB (5%)

Title : Commentary by Terry Gilliam and producer Charles Roven

Language : English

Service kind : Complete Main

Default : No

Forced : No

Text #1
Format : UTF-8

Codec ID : S_TEXT/UTF8

Codec ID/Info : UTF-8 Plain Text

Duration : 2 h 5 min

Bit rate : 72 b/s

Count of elements : 1811

Stream size : 66.5 KiB (0%)

Title : Full

Language : English

Default : Yes

Forced : No

Text #2
Format : UTF-8

Codec ID : S_TEXT/UTF8

Codec ID/Info : UTF-8 Plain Text

Duration : 2 h 9 min

Bit rate : 132 b/s

Count of elements : 2219

Stream size : 126 KiB (0%)

Title : Commentary by Terry Gilliam and producer Charles Roven

Language : English

Default : No

Forced : No

Menu
00:00:00.000 : :Main Title

00:01:52.070 : :The “Volunteer”

00:08:33.136 : :An Opportunity

00:10:56.697 : :Baltimore – April 1990

00:15:59.249 : :The Deluxe Mental Hospital Tour

00:21:27.994 : :The Wrong Time

00:25:17.306 : :Colonics for everyone!

00:29:27.139 : :Monkey Business

00:33:33.093 : :Emancipation

00:36:28.435 : :Bad Judgment

00:37:54.520 : :Science Ain’t an Exact Science

00:39:58.728 : :Another Chance

00:42:04.186 : :Right on the Money

00:44:43.095 : :Baltimore – November 1996

00:47:45.319 : :It’s in Philapelphia…

00:53:47.805 : :The Same Dream

00:57:12.093 : :Cole’s Mission

00:58:48.189 : :They’re Here!

01:01:26.472 : :All I See Are Dead People…

01:03:22.462 : :The Animal Activists

01:06:31.651 : :Going After Jeffrey

01:10:06.698 : :The Timeworn Threat

01:15:49.750 : :It Was My Idea?

01:18:25.989 : :The Normal Reaction

01:21:03.229 : :You Are My Insanity

01:23:41.012 : :Tell Me What I Whant…

01:25:12.270 : :The Man in the Picture

01:26:35.394 : :What’s Real and What’s Not

01:29:02.500 : :The Path of the Virus

01:30:59.658 : :Mentally Divergent

01:32:37.297 : :Seriously Crazy

01:34:33.372 : :I Want to Stay Here…

01:39:24.245 : :The Pimp and the Crazy Dentist

01:41:38.546 : :The Message

01:44:31.427 : :The Monkey Speaks

01:46:31.714 : :The Movie Never Changes

01:49:19.214 : :It Was Always You…

01:50:56.228 : :The Army of Twelve Monkeys Factor

01:52:46.921 : :This is My Dream!

01:54:29.607 : :Someone Else

01:56:31.938 : :You Can Still Be a Hero

01:59:04.965 : :It Doesn’t Even Have an Odor…

02:01:06.253 : :Full Circle

02:04:11.897 : :Insurance

02:05:30.642 : :End Titles

Twelve.Monkeys.1995.1080p.BluDownload Torrent Magnet

#TwelveMonkeys19951080pBlu