True.Mothers.2020.1080p.BRRip Full Torrent Magnet Download

Download Torrent True.Mothers.2020.1080p.BRRip Movie Full in HD Result. Movie True.Mothers.2020.1080p.BRRip Torrent Download full. Movie True.Mothers.2020.1080p.BRRip torrent Magnet Download Full. True.Mothers.2020.1080p.BRRip Full Movie Torrent Download And Magnet Download For your PC And Mobiles. Latest Movie True.Mothers.2020.1080p.BRRip Download Link In Bottom.

Torrent And Magnet Links Below

Release: True.Mothers.2020.1080p.BRRip.x264.AC3.HORiZON-ArtSubs

IMDB: https://www.imdb.com/title/tt10418630/

Subtitle: None

Plot: It is not strange or unusual for a couple to want to procreate and have a child. However, things are not proceeding smoothly for this husband and wife. Despite steadily trying to get the wife pregnant the couple yield to reality and, exhorted by a professional association, the couple proceed to adopt a boy. The couple are happily adapting to their adopted son, but a woman shows up soon enough emphasizing she is the boy’s biological mother. The two mothers are about to face off.

Complete name               : True.Mothers.2020.1080p.BRRip.x264.AC3.HORiZON-ArtSubs.mkv

Format                      : Matroska

Format version              : Version 2

File size                   : 2.57 GiB

Duration                    : 2 h 19 min

Overall bit rate mode       : Constant

Overall bit rate            : 2 630 kb/s

Movie name                  : True.Mothers.2020.1080p.BluRay.x264-WiKi

Encoded date                : UTC 2021-05-22 22:24:16

Writing application         : DVDFab 10.2.0.7

Writing library             : libebml v1.3.4 + libmatroska v1.4.5

Video

ID                          : 1

Format                      : AVC

Format/Info                 : Advanced Video Codec

Format profile              : [email protected]
Format settings             : CABAC / 1 Ref Frames

Format settings, CABAC      : Yes

Format settings, Reference  : 1 frame

Format settings, GOP        : M=1, N=24

Codec ID                    : V_MPEG4/ISO/AVC

Duration                    : 2 h 19 min

Bit rate mode               : Constant

Bit rate                    : 2 181 kb/s

Nominal bit rate            : 2 330 kb/s

Width                       : 1 920 pixels

Height                      : 1 040 pixels

Display aspect ratio        : 1.85:1

Frame rate mode             : Constant

Frame rate                  : 23.976 (24000/1001) FPS

Color space                 : YUV

Chroma subsampling          : 4:2:0

Bit depth                   : 8 bits

Scan type                   : Progressive

Bits/(Pixel*Frame)          : 0.046

Stream size                 : 2.13 GiB (83%)

Default                     : Yes

Forced                      : No

Color range                 : Limited

Color primaries             : BT.709

Transfer characteristics    : BT.709

Matrix coefficients         : BT.709

Audio

ID                          : 2

Format                      : AC-3

Format/Info                 : Audio Coding 3

Commercial name             : Dolby Digital

Codec ID                    : A_AC3

Duration                    : 2 h 19 min

Bit rate mode               : Constant

Bit rate                    : 448 kb/s

Channel(s)                  : 6 channels

Channel layout              : L R C LFE Ls Rs

Sampling rate               : 48.0 kHz

Frame rate                  : 31.250 FPS (1536 SPF)

Compression mode            : Lossy

Stream size                 : 448 MiB (17%)

Language                    : Japanese

Service kind                : Complete Main

Default                     : Yes

Forced                      : No

SCREENSHOTS:




True.Mothers.2020.1080p.BRRipDownload Torrent Magnet

#TrueMothers20201080pBRRip