Trolls World Tour 2020 x264 7 Full Torrent Magnet Download

Download Torrent Trolls World Tour 2020 x264 7 Movie Full in HD Result. Movie Trolls World Tour 2020 x264 7 Torrent Download full. Movie Trolls World Tour 2020 x264 7 torrent Magnet Download Full. Trolls World Tour 2020 x264 7 Full Movie Torrent Download And Magnet Download For your PC And Mobiles. Latest Movie Trolls World Tour 2020 x264 7 Download Link In Bottom.

Torrent And Magnet Links Below

Trolls World Tour 2020 x264 720p Esub BluRay Dual Audio English Hindi GOPI SAHI

Format : Matroska

Format version : Version 4

File size : 726 MiB

Duration : 1 h 30 min

Overall bit rate : 1 119 kb/s

Movie name : Trolls World Tour 2020 GOPI SAHI

Encoded date : UTC 2021-01-31 13:50:51

Video

ID : 1

Format : AVC

Format/Info : Advanced Video Codec

Format profile : [email protected]
Format settings : CABAC / 5 Ref Frames

Format settings, CABAC : Yes

Format settings, Reference fra : 5 frames

Codec ID : V_MPEG4/ISO/AVC

Duration : 1 h 30 min

Bit rate : 899 kb/s

Width : 1 280 pixels

Height : 544 pixels

Display aspect ratio : 2.35:1

Frame rate mode : Constant

Frame rate : 23.976 (24000/1001) FPS

Color space : YUV

Chroma subsampling : 4:2:0

Bit depth : 8 bits

Scan type : Progressive

Bits/(Pixel*Frame) : 0.054

Stream size : 583 MiB (80%)

Title : GOPI SAHI

Writing library : x264 core 157 r2935 545de2f

Audio #1

ID : 2

Format : AAC LC

Format/Info : Advanced Audio Codec Low Complexity

Codec ID : A_AAC-2

Duration : 1 h 30 min

Bit rate : 96.0 kb/s

Channel(s) : 2 channels

Channel layout : L R

Sampling rate : 48.0 kHz

Frame rate : 46.875 FPS (1024 SPF)

Compression mode : Lossy

Delay relative to video : -26 ms

Stream size : 62.6 MiB (9%)

Title : GOPI SAHI

Language : Hindi

Default : Yes

Forced : No

Audio #2

ID : 3

Format : AAC LC

Format/Info : Advanced Audio Codec Low Complexity

Codec ID : A_AAC-2

Duration : 1 h 30 min

Bit rate : 96.0 kb/s

Channel(s) : 2 channels

Channel layout : L R

Sampling rate : 48.0 kHz

Frame rate : 46.875 FPS (1024 SPF)

Compression mode : Lossy

Delay relative to video : -26 ms

Stream size : 62.6 MiB (9%)

Title : GOPI SAHI

Language : English

Default : No

Forced : No

Text

ID : 4

ID in the original source medi : 4608 (0x1200)

Format : PGS

Muxing mode : zlib

Codec ID : S_HDMV/PGS

Codec ID/Info : Picture based subtitle format used on BDs/HD-DVDs

Duration : 1 h 24 min

Bit rate : 52.3 kb/s

Count of elements : 3034

Stream size : 31.5 MiB (4%)

Title : GOPI SAHI

Language : English

Default : No

Forced : No

Original source medium : Blu-ray

Menu

00:00:00.005 : :Chapter 1

00:05:12.776 : :Chapter 2

00:08:44.904 : :Chapter 3

00:12:51.734 : :Chapter 4

00:18:25.818 : :Chapter 5

00:22:58.841 : :Chapter 6

00:27:36.410 : :Chapter 7

00:30:34.588 : :Chapter 8

00:34:23.358 : :Chapter 9

00:38:27.143 : :Chapter 10

00:41:13.101 : :Chapter 11

00:46:19.282 : :Chapter 12

00:50:12.431 : :Chapter 13

00:54:22.931 : :Chapter 14

00:59:22.731 : :Chapter 15

01:03:39.279 : :Chapter 16

01:06:25.528 : :Chapter 17

01:10:18.302 : :Chapter 18

01:15:41.834 : :Chapter 19

01:21:19.922 : :Chapter 20

Trolls World Tour 2020 x264 7Download Torrent Magnet

#Trolls #World #Tour #x264