Trolls.World.Tour.2020.1080p. Full Torrent Magnet Download

Download Torrent Trolls.World.Tour.2020.1080p. Movie Full in HD Result. Movie Trolls.World.Tour.2020.1080p. Torrent Download full. Movie Trolls.World.Tour.2020.1080p. torrent Magnet Download Full. Trolls.World.Tour.2020.1080p. Full Movie Torrent Download And Magnet Download For your PC And Mobiles. Latest Movie Trolls.World.Tour.2020.1080p. Download Link In Bottom.

Torrent And Magnet Links Below

Trolls.World.Tour.2020.1080p.BluRay.[Org.DD5.1-Hindi+DD5.1-English].ESub.AVC~The.PunisheR.mkv

MediaInfo:

General
Unique ID                                : 13536172243661926865777133984254658547 (0xA2EF8D16E07904B44B33B858F0607F3)

Complete name                            : E:seedTrolls.World.Tour.2020.1080p.BluRay.[Org.DD5.1-Hindi+DD5.1-English].ESub.AVC~The.PunisheR.mkv

Format                                   : Matroska

Format version                           : Version 4

File size                                : 4.43 GiB

Duration                                 : 1 h 30 min

Overall bit rate                         : 6 985 kb/s

Encoded date                             : UTC 2021-01-30 10:46:37

Writing application                      : mkvmerge v52.0.0 (‘Secret For The Mad’) 64-bit

Writing library                          : libebml v1.4.1 + libmatroska v1.6.2

Video
ID                                       : 1

Format                                   : AVC

Format/Info                              : Advanced Video Codec

Format profile                           : [email protected]
Format settings                          : CABAC / 5 Ref Frames

Format settings, CABAC                   : Yes

Format settings, Reference frames        : 5 frames

Codec ID                                 : V_MPEG4/ISO/AVC

Duration                                 : 1 h 30 min

Bit rate                                 : 5 678 kb/s

Width                                    : 1 920 pixels

Height                                   : 816 pixels

Display aspect ratio                     : 2.35:1

Frame rate mode                          : Constant

Frame rate                               : 23.976 (24000/1001) FPS

Color space                              : YUV

Chroma subsampling                       : 4:2:0

Bit depth                                : 8 bits

Scan type                                : Progressive

Bits/(Pixel*Frame)                       : 0.151

Stream size                              : 3.60 GiB (81%)

Title                                    : 1080p – Bluray – AVC ~ The.PunisheR

Default                                  : Yes

Forced                                   : No

Color range                              : Limited

Color primaries                          : BT.709

Transfer characteristics                 : BT.709

Matrix coefficients                      : BT.709

Audio #1


ID                                       : 2

Format                                   : AC-3

Format/Info                              : Audio Coding 3

Commercial name                          : Dolby Digital

Codec ID                                 : A_AC3

Duration                                 : 1 h 30 min

Bit rate mode                            : Constant

Bit rate                                 : 640 kb/s

Channel(s)                               : 6 channels

Channel layout                           : L R C LFE Ls Rs

Sampling rate                            : 48.0 kHz

Frame rate                               : 31.250 FPS (1536 SPF)

Compression mode                         : Lossy

Stream size                              : 415 MiB (9%)

Title                                    : Org. DD5.1 / 640kbps / 48kHz – Ranvijay
Language                                 : Hindi

Service kind                             : Complete Main

Default                                  : Yes

Forced                                   : No

Audio #2


ID                                       : 3

Format                                   : AC-3

Format/Info                              : Audio Coding 3

Commercial name                          : Dolby Digital

Codec ID                                 : A_AC3

Duration                                 : 1 h 30 min

Bit rate mode                            : Constant

Bit rate                                 : 640 kb/s

Channel(s)                               : 6 channels

Channel layout                           : L R C LFE Ls Rs

Sampling rate                            : 48.0 kHz

Frame rate                               : 31.250 FPS (1536 SPF)

Compression mode                         : Lossy

Stream size                              : 415 MiB (9%)

Title                                    : Org DD5.1 / 640kbps ~ The.PunisheR

Language                                 : English

Service kind                             : Complete Main

Default                                  : No

Forced                                   : No

Text
ID                                       : 4

ID in the original source medium         : 4608 (0x1200)

Format                                   : PGS

Muxing mode                              : zlib

Codec ID                                 : S_HDMV/PGS

Codec ID/Info                            : Picture based subtitle format used on BDs/HD-DVDs

Duration                                 : 1 h 24 min

Bit rate                                 : 52.3 kb/s

Count of elements                        : 3034

Stream size                              : 31.5 MiB (1%)

Title                                    : English-PGS

Language                                 : English

Default                                  : No

Forced                                   : No

Original source medium                   : Blu-ray

Menu
00:00:00.000                             : en:Chapter 1

00:05:12.770                             : en:Chapter 2

00:08:44.899                             : en:Chapter 3

00:12:51.729                             : en:Chapter 4

00:18:25.813                             : en:Chapter 5

00:22:58.835                             : en:Chapter 6

00:27:36.404                             : en:Chapter 7

00:30:34.582                             : en:Chapter 8

00:34:23.352                             : en:Chapter 9

00:38:27.138                             : en:Chapter 10

00:41:13.095                             : en:Chapter 11

00:46:19.276                             : en:Chapter 12

00:50:12.426                             : en:Chapter 13

00:54:22.926                             : en:Chapter 14

00:59:22.725                             : en:Chapter 15

01:03:39.273                             : en:Chapter 16

01:06:25.523                             : en:Chapter 17

01:10:18.297                             : en:Chapter 18

01:15:41.828                             : en:Chapter 19

01:21:19.916                             : en:Chapter 20

Screenshots:




Quote:


Just Enjoy 😀


Trolls.World.Tour.2020.1080p.Download Torrent Magnet

#TrollsWorldTour20201080p