Trippin With The Kandasamys 2 Full Torrent Magnet Download

Download Torrent Trippin With The Kandasamys 2 Movie Full in HD Result. Movie Trippin With The Kandasamys 2 Torrent Download full. Movie Trippin With The Kandasamys 2 torrent Magnet Download Full. Trippin With The Kandasamys 2 Full Movie Torrent Download And Magnet Download For your PC And Mobiles. Latest Movie Trippin With The Kandasamys 2 Download Link In Bottom.

Torrent And Magnet Links Below

Greets

Admin , Moderator , Noir, Ex0duS5150, theeshiznit, MisterQ, UserHEVC, miok, Silmarillion, Mr. Blue, MaDHeX and many more ;

Join Us On TeleGram

https://t.me/gopisahit

Trippin With The Kandasamys 2021 x264 720p WebHD Esub Dual Audio English Hindi THE GOPI SAHI

Format : Matroska

Format version : Version 4

File size : 862 MiB

Duration : 1 h 33 min

Overall bit rate : 1 285 kb/s

Movie name : Trippin With The Kandasamys 2021 GOPI SAHI

Encoded date : UTC 2021-06-05 07:59:59

Video

ID : 1

Format : AVC

Format/Info : Advanced Video Codec

Format profile : [email protected]
Format settings : CABAC / 5 Ref Frames

Format settings, CABAC : Yes

Format settings, Reference fra : 5 frames

Codec ID : V_MPEG4/ISO/AVC

Duration : 1 h 33 min

Bit rate : 899 kb/s

Width : 1 280 pixels

Height : 534 pixels

Display aspect ratio : 2.40:1

Frame rate mode : Constant

Frame rate : 24.000 FPS

Color space : YUV

Chroma subsampling : 4:2:0

Bit depth : 8 bits

Scan type : Progressive

Bits/(Pixel*Frame) : 0.055

Stream size : 603 MiB (70%)

Title : GOPI SAHI

Writing library : x264 core 157 r2935 545de2f

Audio #1

ID : 2

Format : AAC LC

Format/Info : Advanced Audio Codec Low Complexity

Codec ID : A_AAC-2

Duration : 1 h 33 min

Bit rate : 192 kb/s

Channel(s) : 6 channels

Channel layout : C L R Ls Rs LFE

Sampling rate : 48.0 kHz

Frame rate : 46.875 FPS (1024 SPF)

Compression mode : Lossy

Delay relative to video : -21 ms

Stream size : 128 MiB (15%)

Title : GOPI SAHI

Language : Hindi

Default : Yes

Forced : No

Audio #2

ID : 3

Format : AAC LC

Format/Info : Advanced Audio Codec Low Complexity

Codec ID : A_AAC-2

Duration : 1 h 33 min

Bit rate : 192 kb/s

Channel(s) : 6 channels

Channel layout : C L R Ls Rs LFE

Sampling rate : 48.0 kHz

Frame rate : 46.875 FPS (1024 SPF)

Compression mode : Lossy

Delay relative to video : -21 ms

Stream size : 128 MiB (15%)

Title : GOPI SAHI

Language : English

Default : No

Forced : No

Text

ID : 4

Format : UTF-8

Codec ID : S_TEXT/UTF8

Codec ID/Info : UTF-8 Plain Text

Duration : 1 h 33 min

Bit rate : 93 b/s

Count of elements : 1678

Stream size : 63.9 KiB (0%)

Title : GOPI SAHI

Language : English

Default : Yes

Forced : No

Trippin With The Kandasamys 2Download Torrent Magnet

#Trippin #Kandasamys