Trip (2021) Tamil (1080p WEBR Full Torrent Magnet Download

Download Torrent Trip (2021) Tamil (1080p WEBR Movie Full in HD Result. Movie Trip (2021) Tamil (1080p WEBR Torrent Download full. Movie Trip (2021) Tamil (1080p WEBR torrent Magnet Download Full. Trip (2021) Tamil (1080p WEBR Full Movie Torrent Download And Magnet Download For your PC And Mobiles. Latest Movie Trip (2021) Tamil (1080p WEBR Download Link In Bottom.

Torrent And Magnet Links Below


Trip (2021) Tamil | IMDb (4.3/10)

Original Audio: Tamil






Source Information

Code:

Release:

Trip (2021) Tamil 1080p JC WEB-DL H264-Ranvijay (6.9 GB) [Video]
Trip (2021) Tamil 1080p SUNNXT WEB-DL DDP 5.1 H264-Ranvijay (3.8 GB) [Audio+Subtitle]

Media Information

Code:

General
Complete name : Trip (2021) Tamil (1080p WEBRip x265 10bit AC3) – [Musafirboy].mkv

Format : Matroska

Format version : Version 4

File size : 1.84 GiB

Duration : 2 h 0 min

Overall bit rate : 2 186 kb/s

Encoded date : UTC 2021-03-13 05:23:13

Writing application : mkvmerge v39.0.0 (‘In The Waiting Line’) 64-bit

Video
Format : HEVC

Format/Info : High Efficiency Video Coding

Format profile : Main [email protected]@Main

Codec ID : V_MPEGH/ISO/HEVC

Duration : 2 h 0 min

Bit rate : 1 801 kb/s

Width : 1 920 pixels

Height : 816 pixels

Display aspect ratio : 2.35:1

Frame rate mode : Constant

Frame rate : 24.000 FPS

Color space : YUV

Chroma subsampling : 4:2:0

Bit depth : 10 bits
Bits/(Pixel*Frame) : 0.048

Stream size : 1.51 GiB (82%)

Writing library : x265 v3.5_By:Musafirboy[GCC v10.2][64 bit] 10bit

Encoding settings : cpuid=1111039 / frame-threads=4 / numa-pools=16 / wpp / no-pmode / no-pme / no-psnr / no-ssim / log-level=2 / input-csp=1 / input-res=1920×816 / interlace=0 / total-frames=173232 / level-idc=50 / high-tier=1 / uhd-bd=0 / ref=3 / no-allow-non-conformance / no-repeat-headers / annexb / no-aud / no-hrd / info / hash=0 / no-temporal-layers / open-gop / min-keyint=24 / keyint=250 / gop-lookahead=0 / bframes=8 / b-adapt=2 / b-pyramid / bframe-bias=0 / rc-lookahead=20 / lookahead-slices=5 / scenecut=40 / hist-scenecut=0 / radl=0 / no-splice / no-intra-refresh / ctu=64 / min-cu-size=8 / no-rect / no-amp / max-tu-size=32 / tu-inter-depth=1 / tu-intra-depth=1 / limit-tu=0 / rdoq-level=0 / dynamic-rd=0.00 / no-ssim-rd / signhide / no-tskip / nr-intra=0 / nr-inter=0 / no-constrained-intra / strong-intra-smoothing / max-merge=3 / limit-refs=1 / no-limit-modes / me=1 / subme=2 / merange=57 / temporal-mvp / no-frame-dup / no-hme / weightp / no-weightb / no-analyze-src-pics / deblock=0:0 / sao / no-sao-non-deblock / rd=3 / selective-sao=4 / early-skip / rskip / no-fast-intra / no-tskip-fast / no-cu-lossless / b-intra / no-splitrd-skip / rdpenalty=0 / psy-rd=2.00 / psy-rdoq=0.00 / no-rd-refine / no-lossless / cbqpoffs=0 / crqpoffs=0 / rc=abr / bitrate=1800 / qcomp=0.60 / qpstep=4 / stats-write=0 / stats-read=2 / cplxblur=20.0 / qblur=0.5 / ipratio=1.40 / pbratio=1.30 / aq-mode=3 / aq-strength=0.40 / cutree / zone-count=0 / no-strict-cbr / qg-size=32 / no-rc-grain / qpmax=69 / qpmin=0 / no-const-vbv / sar=0 / overscan=0 / videoformat=5 / range=0 / colorprim=1 / transfer=1 / colormatrix=1 / chromaloc=0 / display-window=0 / cll=0,0 / min-luma=0 / max-luma=1023 / log2-max-poc-lsb=8 / vui-timing-info / vui-hrd-info / slices=1 / no-opt-qp-pps / no-opt-ref-list-length-pps / no-multi-pass-opt-rps / scenecut-bias=0.05 / hist-threshold=0.03 / no-opt-cu-delta-qp / no-aq-motion / no-hdr10 / no-hdr10-opt / no-dhdr10-opt / no-idr-recovery-sei / analysis-reuse-level=0 / analysis-save-reuse-level=0 / analysis-load-reuse-level=0 / scale-factor=0 / refine-intra=0 / refine-inter=0 / refine-mv=1 / refine-ctu-distortion=0 / no-limit-sao / ctu-info=0 / no-lowpass-dct / refine-analysis-type=0 / copy-pic=1 / max-ausize-factor=1.0 / no-dynamic-refine / no-single-sei / no-hevc-aq / no-svt / no-field / qp-adaptation-range=1.00 / scenecut-aware-qp=0conformance-window-offsets / right=0 / bottom=0 / decoder-max-rate=0 / no-vbv-live-multi-pass

Default : Yes

Forced : No

Color range : Limited

Color primaries : BT.709

Transfer characteristics : BT.709

Matrix coefficients : BT.709

Audio
Format : AC-3

Format/Info : Audio Coding 3

Commercial name : Dolby Digital

Codec ID : A_AC3

Duration : 2 h 0 min

Bit rate mode : Constant

Bit rate : 384 kb/s

Channel(s) : 6 channels

Channel layout : L R C LFE Ls Rs

Sampling rate : 48.0 kHz

Frame rate : 31.250 FPS (1536 SPF)

Compression mode : Lossy

Stream size : 330 MiB (18%)

Language : Tamil

Service kind : Complete Main

Default : Yes

Forced : No

Subtitle
Format : UTF-8

Codec ID : S_TEXT/UTF8

Codec ID/Info : UTF-8 Plain Text

Duration : 1 h 53 min

Bit rate : 60 b/s

Count of elements : 1857

Stream size : 50.1 KiB (0%)

Language : English

Default : Yes

Forced : No

Trip (2021) Tamil (1080p WEBRDownload Torrent Magnet

#Trip #Tamil #1080p #WEBR