Tremors.1990.UHD.BluRay.HDR.2 Full Torrent Magnet Download

Download Torrent Tremors.1990.UHD.BluRay.HDR.2 Movie Full in HD Result. Movie Tremors.1990.UHD.BluRay.HDR.2 Torrent Download full. Movie Tremors.1990.UHD.BluRay.HDR.2 torrent Magnet Download Full. Tremors.1990.UHD.BluRay.HDR.2 Full Movie Torrent Download And Magnet Download For your PC And Mobiles. Latest Movie Tremors.1990.UHD.BluRay.HDR.2 Download Link In Bottom.

Torrent And Magnet Links Below

DATI – TRAMA

Titolo originale: Tremors

Nazione: United States

Anno: 1990

Genere: Comedy, Horror

Durata: 96

Regia: Ron Underwood

Cast: Kevin Bacon, Fred Ward, Finn Carter, Michael Gross, Reba McEntire, Robert Jayne, Charlotte Stewart, Tony Genaro, Ariana Richards, Richard Marcus, Victor Wong, Sunshine Parker, Michael Dan Wagner, Conrad Bachmann, Bibi Besch, John Goodwin, John Pappas, Tom Woodruff Jr.

Produzione: Universal Pictures, No Frills Film Production, Wilson-Maddock Production

Tremors è un film diretto da Ron Underwood. Stanchi della monotona vita nella sperduta cittadina di Perfection in Nevada, i giovani Valentine McKee (Kevin Bacon) ed Earl Bassett (Fred Ward) decidono di partire per cercare fortuna altrove. Tuttavia, appena iniziato il loro viaggio, i due scoprono lungo la strada alcuni cadaveri, uccisi da misteriose creature provenienti dal sottosuolo.Valentine ed Earl decidono quindi di fare dietro front per avvertire gli altri abitanti dell’imminente pericolo. Sebbene i mostri – degli enormi vermi tentacolati – non posseggano una grande intelligenza, riescono a individuare con facilità le loro prede umane, anche se nascoste nelle automobili, le quali vengono inglobate sotto terra. Grazie all’aiuto di Rhonda Le Beck (Finn Carter), Valentine ed Earl riescono ad uccidere un Gabroid – così vengono chiamati i mostri del sottosuolo – ma altri tre vermi continuano a seminare terrore tra gli abitanti di Perfection. Dopo aver trovato rifugio sui tetti degli edifici, i superstiti assistono con orrore alla demolizione delle fondamenta dei palazzi da parte dei famelici Gabroid…

IMMAGINI



REPORT

General

Unique ID : 223022234221383002070308806716757666694 (0xA7C88519281C671C431090C0CA306B86)

Complete name : D:TREMORSUHDTremors.1990.UHD.BluRay.HDR.2160p.DTS.ITA.DTS.ENG.Subs.x265-WGZ.mkv

Format : Matroska

Format version : Version 4

File size : 38.5 GiB

Duration : 1 h 35 min

Overall bit rate : 57.4 Mb/s

Encoded date : UTC 2021-02-04 12:51:17

Writing application : mkvmerge v53.0.0 (‘Fool’s Gold’) 64-bit

Writing library : libebml v1.4.1 + libmatroska v1.6.2

Video

ID : 1

Format : HEVC

Format/Info : High Efficiency Video Coding

Format profile : Main [email protected]@High

HDR format : SMPTE ST 2086, HDR10 compatible

Codec ID : V_MPEGH/ISO/HEVC

Duration : 1 h 35 min

Bit rate : 55.1 Mb/s

Width : 3 840 pixels

Height : 2 076 pixels

Display aspect ratio : 1.85:1

Frame rate mode : Constant

Frame rate : 23.976 (24000/1001) FPS

Color space : YUV

Chroma subsampling : 4:2:0 (Type 2)

Bit depth : 10 bits

Bits/(Pixel*Frame) : 0.288

Stream size : 36.9 GiB (96%)

Title : VideoBitrate=55086kbps – Avg.DRF=23.38 [ENCODED by WGZ]
Writing library : x265 3.4+36-5239276dd:[Windows][GCC 10.2.1][64 bit] 10bit

Encoding settings : cpuid=1111039 / frame-threads=4 / numa-pools=16 / wpp / no-pmode / no-pme / no-psnr / no-ssim / log-level=2 / input-csp=1 / input-res=3840×2076 / interlace=0 / total-frames=138086 / level-idc=51 / high-tier=1 / uhd-bd=0 / ref=4 / no-allow-non-conformance / repeat-headers / annexb / no-aud / hrd / info / hash=0 / no-temporal-layers / open-gop / min-keyint=23 / keyint=250 / gop-lookahead=0 / bframes=12 / b-adapt=2 / b-pyramid / bframe-bias=0 / rc-lookahead=40 / lookahead-slices=4 / scenecut=40 / hist-scenecut=0 / radl=0 / no-splice / no-intra-refresh / ctu=64 / min-cu-size=8 / rect / no-amp / max-tu-size=32 / tu-inter-depth=1 / tu-intra-depth=1 / limit-tu=0 / rdoq-level=2 / dynamic-rd=0.00 / no-ssim-rd / signhide / no-tskip / nr-intra=0 / nr-inter=0 / no-constrained-intra / no-strong-intra-smoothing / max-merge=3 / limit-refs=3 / limit-modes / me=3 / subme=5 / merange=57 / temporal-mvp / no-frame-dup / no-hme / weightp / weightb / no-analyze-src-pics / deblock=-3:-3 / no-sao / no-sao-non-deblock / rd=4 / selective-sao=0 / no-early-skip / rskip / no-fast-intra / no-tskip-fast / no-cu-lossless / no-b-intra / no-splitrd-skip / rdpenalty=0 / psy-rd=2.00 / psy-rdoq=1.00 / no-rd-refine / no-lossless / cbqpoffs=0 / crqpoffs=0 / rc=crf / crf=19.2 / qcomp=0.60 / qpstep=4 / stats-write=0 / stats-read=0 / vbv-maxrate=160000 / vbv-bufsize=160000 / vbv-init=0.9 / min-vbv-fullness=50.0 / max-vbv-fullness=80.0 / crf-max=0.0 / crf-min=0.0 / ipratio=1.30 / pbratio=1.20 / aq-mode=3 / aq-strength=0.80 / cutree / zone-count=1 / zones: / start-frame=132450 / end-frame=137560 / qp=23 / no-strict-cbr / qg-size=32 / no-rc-grain / qpmax=69 / qpmin=0 / no-const-vbv / sar=1 / overscan=0 / videoformat=5 / range=0 / colorprim=9 / transfer=16 / colormatrix=9 / chromaloc=1 / chromaloc-top=2 / chromaloc-bottom=2 / display-window=0 / master-display=G(8500,39850)B(6550,2300)R(35400,14600)WP(15635,16450)L(10000000,1) / cll=0,0 / min-luma=0 / max-luma=1023 / log2-max-poc-lsb=8 / vui-timing-info / vui-hrd-info / slices=1 / no-opt-qp-pps / no-opt-ref-list-length-pps / no-multi-pass-opt-rps / scenecut-bias=0.05 / hist-threshold=0.03 / no-opt-cu-delta-qp / no-aq-motion / hdr10 / hdr10-opt / no-dhdr10-opt / no-idr-recovery-sei / analysis-reuse-level=0 / analysis-save-reuse-level=0 / analysis-load-reuse-level=0 / scale-factor=0 / refine-intra=0 / refine-inter=0 / refine-mv=1 / refine-ctu-distortion=0 / no-limit-sao / ctu-info=0 / no-lowpass-dct / refine-analysis-type=0 / copy-pic=1 / max-ausize-factor=1.0 / no-dynamic-refine / no-single-sei / no-hevc-aq / no-svt / no-field / qp-adaptation-range=1.00 / scenecut-aware-qp=0conformance-window-offsets / right=0 / bottom=0 / decoder-max-rate=0 / no-vbv-live-multi-pass

Language : English

Default : Yes

Forced : No

Color range : Limited

Color primaries : BT.2020

Transfer characteristics : PQ

Matrix coefficients : BT.2020 non-constant

Mastering display color pri : BT.2020

Mastering display luminance : min: 0.0001 cd/m2, max: 1000 cd/m2

Audio #1

ID : 2

Format : DTS

Format/Info : Digital Theater Systems

Codec ID : A_DTS

Duration : 1 h 35 min

Bit rate mode : Constant

Bit rate : 768 kb/s

Channel(s) : 6 channels

Channel layout : C L R Ls Rs LFE

Sampling rate : 48.0 kHz

Frame rate : 93.750 FPS (512 SPF)

Bit depth : 24 bits

Compression mode : Lossy

Stream size : 525 MiB (1%)

Title : DTS ITA 5.1 768 kbps

Language : Italian

Default : Yes

Forced : No

Audio #2

ID : 3

Format : DTS

Format/Info : Digital Theater Systems

Codec ID : A_DTS

Duration : 1 h 35 min

Bit rate mode : Constant

Bit rate : 1 509 kb/s

Channel(s) : 6 channels

Channel layout : C L R Ls Rs LFE

Sampling rate : 48.0 kHz

Frame rate : 93.750 FPS (512 SPF)

Bit depth : 24 bits

Compression mode : Lossy

Stream size : 1.01 GiB (3%)

Title : DTS ENG 5.1 1509 kbps

Language : English

Default : No

Forced : No

Text #1

ID : 4

Format : UTF-8

Codec ID : S_TEXT/UTF8

Codec ID/Info : UTF-8 Plain Text

Duration : 49 min 1 s

Bit rate : 0 b/s

Count of elements : 7

Stream size : 211 Bytes (0%)

Title : SUB ITA Forced

Language : Italian

Default : Yes

Forced : Yes

Text #2

ID : 5

Format : UTF-8

Codec ID : S_TEXT/UTF8

Codec ID/Info : UTF-8 Plain Text

Duration : 1 h 30 min

Bit rate : 49 b/s

Count of elements : 1033

Stream size : 32.9 KiB (0%)

Title : SUB ITA

Language : Italian

Default : No

Forced : No

Text #3

ID : 6

Format : UTF-8

Codec ID : S_TEXT/UTF8

Codec ID/Info : UTF-8 Plain Text

Duration : 1 h 31 min

Bit rate : 56 b/s

Count of elements : 1170

Stream size : 37.4 KiB (0%)

Title : SUB ENG

Language : English

Default : No

Forced : No

Text #4

ID : 7

Format : PGS

Codec ID : S_HDMV/PGS

Codec ID/Info : Picture based subtitle format used on BDs/HD-DVDs

Duration : 49 min 1 s

Bit rate : 437 b/s

Count of elements : 14

Stream size : 157 KiB (0%)

Title : SUB ITA Forced

Language : Italian

Default : No

Forced : No

Text #5

ID : 8

Format : PGS

Codec ID : S_HDMV/PGS

Codec ID/Info : Picture based subtitle format used on BDs/HD-DVDs

Duration : 1 h 30 min

Bit rate : 31.3 kb/s

Count of elements : 2067

Stream size : 20.3 MiB (0%)

Title : SUB ITA

Language : Italian

Default : No

Forced : No

Text #6

ID : 9

Format : PGS

Codec ID : S_HDMV/PGS

Codec ID/Info : Picture based subtitle format used on BDs/HD-DVDs

Duration : 1 h 31 min

Bit rate : 36.8 kb/s

Count of elements : 2342

Stream size : 24.0 MiB (0%)

Title : SUB ENG (SDH)

Language : English

Default : No

Forced : No

Menu

00:00:00.000 : it:CAPITOLO 01

00:08:30.426 : it:CAPITOLO 02

00:15:49.907 : it:CAPITOLO 03

00:22:40.484 : it:CAPITOLO 04

00:31:33.933 : it:CAPITOLO 05

00:40:32.763 : it:CAPITOLO 06

00:47:52.244 : it:CAPITOLO 07

00:55:55.143 : it:CAPITOLO 08

01:01:35.233 : it:CAPITOLO 09

01:10:35.564 : it:CAPITOLO 10

01:21:12.242 : it:CAPITOLO 11

01:27:45.301 : it:CAPITOLO 12

GOOD DOWNLOAD

Tremors.1990.UHD.BluRay.HDR.2Download Torrent Magnet

#Tremors1990UHDBluRayHDR2