Touched_by_an_Angel_DVDrip_S0 Full Torrent Magnet Download

Download Torrent Touched_by_an_Angel_DVDrip_S0 Movie Full in HD Result. Movie Touched_by_an_Angel_DVDrip_S0 Torrent Download full. Movie Touched_by_an_Angel_DVDrip_S0 torrent Magnet Download Full. Touched_by_an_Angel_DVDrip_S0 Full Movie Torrent Download And Magnet Download For your PC And Mobiles. Latest Movie Touched_by_an_Angel_DVDrip_S0 Download Link In Bottom.

Torrent And Magnet Links Below

Release: Touched_by_an_Angel_DVDrip_S02E16_Jacob’s_Ladder

IMDB: https://www.imdb.com/title/tt0108968

Plot: Monica (Roma Downey), Tess (Della Reese), and Andrew (John Dye) are a trio of angels sent to Earth to tell depressed and troubled people that God loves them and hasn’t forgotten them.

General

Complete name : Touched_by_an_Angel_DVDrip_S02E16_Jacob’s_Ladder.mp4

Format : MPEG-4

Format profile : Base Media

Codec ID : isom (isom/iso2/avc1/mp41)

File size : 455 MiB

Duration : 47 min 28 s

Overall bit rate mode : Variable

Overall bit rate : 1 340 kb/s

Movie name : DVD_VIDEO_Title3

Writing application : WinXDVD-“Digiarty DVD Engine v2017”

Video

ID : 1

Format : AVC

Format/Info : Advanced Video Codec

Format profile : [email protected]
Format settings : 6 Ref Frames

Format settings, CABAC : No

Format settings, Reference : 6 frames

Codec ID : avc1

Codec ID/Info : Advanced Video Coding

Duration : 47 min 28 s

Bit rate : 1 205 kb/s

Width : 720 pixels

Height : 480 pixels

Display aspect ratio : 3:2

Frame rate mode : Constant

Frame rate : 29.970 (30000/1001) FPS

Standard : NTSC

Color space : YUV

Chroma subsampling : 4:2:0

Bit depth : 8 bits

Scan type : Progressive

Bits/(Pixel*Frame) : 0.116

Stream size : 409 MiB (90%)

Codec configuration box : avcC

Audio

ID : 2

Format : AAC LC

Format/Info : Advanced Audio Codec Low Complexity

Codec ID : mp4a-40-2

Duration : 47 min 28 s

Bit rate mode : Variable

Bit rate : 128 kb/s

Maximum bit rate : 156 kb/s

Channel(s) : 2 channels

Channel layout : L R

Sampling rate : 44.1 kHz

Frame rate : 43.066 FPS (1024 SPF)

Compression mode : Lossy

Stream size : 43.5 MiB (10%)

Default : Yes

Alternate group : 1

SCREENSHOTS:






Touched_by_an_Angel_DVDrip_S0Download Torrent Magnet

#TouchedbyanAngelDVDripS0