Tom.&.Jerry.2021.iTA-ENG.WEBD Full Torrent Magnet Download

Download Torrent Tom.&.Jerry.2021.iTA-ENG.WEBD Movie Full in HD Result. Movie Tom.&.Jerry.2021.iTA-ENG.WEBD Torrent Download full. Movie Tom.&.Jerry.2021.iTA-ENG.WEBD torrent Magnet Download Full. Tom.&.Jerry.2021.iTA-ENG.WEBD Full Movie Torrent Download And Magnet Download For your PC And Mobiles. Latest Movie Tom.&.Jerry.2021.iTA-ENG.WEBD Download Link In Bottom.

Torrent And Magnet Links Below

Title

Info Plot

Genere: Animazione, Avventura, Commedia

Anno: 2021

Regia: Tim Story

Attori: Chloë Grace Moretz, Michael Peña, Colin Jost, Ken Jeong, Nicky Jam, Bobby Cannavale, Lil Rel Howery

Paese: USA

Distribuzione: Warner Bros. Entertainment Italia

Il topo Jerry si trasferisce nel miglior hotel di New York alla vigilia del “matrimonio del secolo”, costringendo il disperato organizzatore dell’evento ad assumere il gatto Tom per sbarazzarsi di lui. La conseguente battaglia tra gatto e topo minaccia di distruggere la sua carriera, il matrimonio e forse l’hotel stesso. Ma presto, sorge un problema ancora più grande: uno staff diabolicamente ambizioso che cospira contro tutti e tre.

Images


Report

Code:

General

Unique ID : 195402135864134600438478930432362884587 (0x9301151C7A78CBE79DA2073007352DEB)

Complete name : E:Tom.&.Jerry.2021.iTA-ENG.WEBDL.2160p.x265-CYBER.mkv

Format : Matroska

Format version : Version 4

File size : 14.5 GiB

Duration : 1 h 41 min

Overall bit rate : 20.6 Mb/s

Encoded date : UTC 2021-03-17 23:58:22

Writing application : mkvmerge v55.0.0 (‘Waiting For Space’) 64-bit

Writing library : libebml v1.4.2 + libmatroska v1.6.4

Video

ID : 1

Format : HEVC

Format/Info : High Efficiency Video Coding

Format profile : Main [email protected]@Main

HDR format : SMPTE ST 2086, HDR10 compatible

Codec ID : V_MPEGH/ISO/HEVC

Duration : 1 h 41 min

Bit rate : 17.9 Mb/s

Width : 3 840 pixels

Height : 2 160 pixels

Display aspect ratio : 16:9

Frame rate mode : Constant

Frame rate : 23.976 (24000/1001) FPS

Color space : YUV

Chroma subsampling : 4:2:0

Bit depth : 10 bits

Bits/(Pixel*Frame) : 0.090

Stream size : 12.6 GiB (87%)

Title : 2160p

Writing library : x265 3.4hy:[Linux][GCC 7.5.0][64 bit] 10bit

Encoding settings : cpuid=1111039 / frame-threads=1 / wpp / no-pmode / no-pme / no-psnr / no-ssim / log-level=2 / input-csp=1 / input-res=3840×2160 / interlace=0 / total-frames=0 / level-idc=0 / high-tier=1 / uhd-bd=0 / ref=4 / no-allow-non-conformance / repeat-headers / annexb / no-aud / no-hrd / info / hash=0 / no-temporal-layers / no-open-gop / min-keyint=96 / keyint=96 / gop-lookahead=0 / bframes=3 / b-adapt=2 / b-pyramid / bframe-bias=0 / rc-lookahead=25 / lookahead-slices=4 / scenecut=40 / hist-scenecut=0 / radl=0 / no-splice / no-intra-refresh / ctu=64 / min-cu-size=8 / rect / no-amp / max-tu-size=32 / tu-inter-depth=1 / tu-intra-depth=1 / limit-tu=0 / rdoq-level=2 / dynamic-rd=0.00 / no-ssim-rd / signhide / no-tskip / nr-intra=0 / nr-inter=0 / no-constrained-intra / strong-intra-smoothing / max-merge=3 / limit-refs=3 / limit-modes / me=3 / subme=3 / merange=57 / temporal-mvp / no-frame-dup / no-hme / weightp / no-weightb / no-analyze-src-pics / deblock=0:0 / sao / no-sao-non-deblock / rd=4 / selective-sao=4 / no-early-skip / rskip / no-fast-intra / no-tskip-fast / no-cu-lossless / no-b-intra / no-splitrd-skip / rdpenalty=0 / psy-rd=2.00 / psy-rdoq=1.00 / no-rd-refine / no-lossless / cbqpoffs=0 / crqpoffs=0 / rc=abr / bitrate=18000 / qcomp=0.60 / qpstep=4 / stats-write=0 / stats-read=2 / cplxblur=20.0 / qblur=0.5 / vbv-maxrate=24500 / vbv-bufsize=24500 / vbv-init=0.6 / vbv-end=0.6 / vbv-end-fr-adj=0.0 / ipratio=1.40 / pbratio=1.30 / aq-mode=2 / aq-strength=1.00 / cutree / zone-count=0 / no-strict-cbr / qg-size=32 / no-rc-grain / qpmax=69 / qpmin=0 / no-const-vbv / sar=0 / overscan=0 / videoformat=5 / range=0 / colorprim=9 / transfer=16 / colormatrix=9 / chromaloc=0 / display-window=0 / master-display=G(13250,34500)B(7500,3000)R(34000,16000)WP(15635,16450)L(10000000,1) / cll=537,113 / min-luma=0 / max-luma=1023 / log2-max-poc-lsb=8 / vui-timing-info / vui-hrd-info / no-concatenation / slices=1 / no-opt-qp-pps / no-opt-ref-list-length-pps / no-multi-pass-opt-rps / scenecut-bias=0.05 / hist-threshold=0.01 / no-opt-cu-delta-qp / no-aq-motion / hdr10 / no-hdr10-opt / no-dhdr10-opt / no-idr-recovery-sei / analysis-reuse-level=0 / analysis-save-reuse-level=0 / analysis-load-reuse-level=0 / scale-factor=0 / refine-intra=0 / refine-inter=0 / refine-mv=1 / refine-ctu-distortion=0 / no-limit-sao / ctu-info=0 / no-lowpass-dct / refine-analysis-type=0 / copy-pic=1 / max-ausize-factor=1.0 / no-dynamic-refine / no-single-sei / no-hevc-aq / no-svt / no-field / qp-adaptation-range=1.00 / no-scenecut-aware-qpconformance-window-offsets / right=0 / bottom=0 / decoder-max-rate=0

Language : English

Default : Yes

Forced : No

Color range : Limited

Color primaries : BT.2020

Transfer characteristics : PQ

Matrix coefficients : BT.2020 non-constant

Mastering display color primaries : Display P3

Mastering display luminance : min: 0.0001 cd/m2, max: 1000 cd/m2

Maximum Content Light Level : 537 cd/m2

Maximum Frame-Average Light Level : 113 cd/m2

Audio #1

ID : 2

Format : E-AC-3

Format/Info : Enhanced AC-3

Commercial name : Dolby Digital Plus

Codec ID : A_EAC3

Duration : 1 h 41 min

Bit rate mode : Constant

Bit rate : 640 kb/s

Channel(s) : 6 channels

Channel layout : L R C LFE Ls Rs

Sampling rate : 48.0 kHz

Frame rate : 31.250 FPS (1536 SPF)

Compression mode : Lossy

Delay relative to video : 982 ms

Stream size : 462 MiB (3%)

Title : E-AC3

Language : Italian

Service kind : Complete Main

Default : Yes

Forced : No

Audio #2

ID : 3

Format : AC-3

Format/Info : Audio Coding 3

Commercial name : Dolby Digital

Codec ID : A_AC3

Duration : 1 h 41 min

Bit rate mode : Constant

Bit rate : 640 kb/s

Channel(s) : 6 channels

Channel layout : L R C LFE Ls Rs

Sampling rate : 48.0 kHz

Frame rate : 31.250 FPS (1536 SPF)

Compression mode : Lossy

Delay relative to video : 982 ms

Stream size : 462 MiB (3%)

Title : AC3

Language : Italian

Service kind : Complete Main

Default : No

Forced : No

Audio #3

ID : 4

Format : E-AC-3 JOC

Format/Info : Enhanced AC-3 with Joint Object Coding

Commercial name : Dolby Digital Plus with Dolby Atmos

Codec ID : A_EAC3

Duration : 1 h 41 min

Bit rate mode : Constant

Bit rate : 768 kb/s

Channel(s) : 6 channels

Channel layout : L R C LFE Ls Rs

Sampling rate : 48.0 kHz

Frame rate : 31.250 FPS (1536 SPF)

Compression mode : Lossy

Stream size : 555 MiB (4%)

Title : E-AC3

Language : English

Service kind : Complete Main

Default : No

Forced : No

Complexity index : 16

Number of dynamic objects : 15

Bed channel count : 1 channel

Bed channel configuration : LFE

Audio #4

ID : 5

Format : AC-3

Format/Info : Audio Coding 3

Commercial name : Dolby Digital

Codec ID : A_AC3

Duration : 1 h 41 min

Bit rate mode : Constant

Bit rate : 640 kb/s

Channel(s) : 6 channels

Channel layout : L R C LFE Ls Rs

Sampling rate : 48.0 kHz

Frame rate : 31.250 FPS (1536 SPF)

Compression mode : Lossy

Stream size : 463 MiB (3%)

Title : AC3

Language : English

Service kind : Complete Main

Default : No

Forced : No

Text #1

ID : 6

Format : UTF-8

Codec ID : S_TEXT/UTF8

Codec ID/Info : UTF-8 Plain Text

Duration : 1 h 35 min

Bit rate : 0 b/s

Count of elements : 30

Stream size : 640 Bytes (0%)

Title : Forced

Language : Italian

Default : No

Forced : Yes

Text #2

ID : 7

Format : UTF-8

Codec ID : S_TEXT/UTF8

Codec ID/Info : UTF-8 Plain Text

Duration : 1 h 40 min

Bit rate : 67 b/s

Count of elements : 1882

Stream size : 49.8 KiB (0%)

Title : Regular

Language : Italian

Default : No

Forced : No

Text #3

ID : 8

Format : UTF-8

Codec ID : S_TEXT/UTF8

Codec ID/Info : UTF-8 Plain Text

Duration : 1 h 40 min

Bit rate : 96 b/s

Count of elements : 2266

Stream size : 70.9 KiB (0%)

Title : English

Language : English

Default : No

Forced : No

Good Download

Tom.&.Jerry.2021.iTA-ENG.WEBDDownload Torrent Magnet

#TomJerry2021iTAENGWEBD