Time S01E01 (1280x720p HD, 50 Full Torrent Magnet Download

Download Torrent Time S01E01 (1280x720p HD, 50 Movie Full in HD Result. Movie Time S01E01 (1280x720p HD, 50 Torrent Download full. Movie Time S01E01 (1280x720p HD, 50 torrent Magnet Download Full. Time S01E01 (1280x720p HD, 50 Full Movie Torrent Download And Magnet Download For your PC And Mobiles. Latest Movie Time S01E01 (1280x720p HD, 50 Download Link In Bottom.

Torrent And Magnet Links Below

Time S01E01 (1280x720p HD, 50fps, soft Eng subs)

Mark Cobden is sent to prison and has to learn quickly how to survive. When an inmate identifies prison officer Eric McNally’s weakness, he faces an impossible choice.

First broadcast: 6 June 2021

Duration: 55 minutes

Torrent dead? Request reseed at torrentgalaxy.org – or ask at elsonroa at tutanota.com

Media info:-

General

Format : MPEG-4

Format profile : Base Media

Codec ID : isom (isom/iso2/avc1/mp41)

File size : 1.81 GiB

Duration : 55mn 36s

Overall bit rate : 4 671 Kbps

Video

ID : 1

Format : AVC

Format/Info : Advanced Video Codec

Format profile : [email protected]
Format settings, CABAC : Yes

Format settings, ReFrames : 4 frames

Codec ID : avc1

Codec ID/Info : Advanced Video Coding

Duration : 55mn 36s

Bit rate : 4 535 Kbps

Width : 1 280 pixels

Height : 720 pixels

Display aspect ratio : 16:9

Frame rate mode : Constant

Frame rate : 50.000 fps

Color space : YUV

Chroma subsampling : 4:2:0

Bit depth : 8 bits

Scan type : Progressive

Bits/(Pixel*Frame) : 0.098

Stream size : 1.76 GiB (97%)

Encoded date : UTC 1904-01-01 00:00:00

Tagged date : UTC 1904-01-01 00:00:00

Color range : Limited

Color primaries : BT.709

Transfer characteristics : BT.709

Matrix coefficients : BT.709

Audio

ID : 2

Format : AAC

Format/Info : Advanced Audio Codec

Format profile : LC

Codec ID : 40

Duration : 55mn 36s

Bit rate mode : Constant

Bit rate : 128 Kbps

Channel(s) : 2 channels

Channel positions : Front: L R

Sampling rate : 48.0 KHz

Frame rate : 46.875 fps (1024 spf)

Compression mode : Lossy

Stream size : 50.9 MiB (3%)

Language : English

Time S01E01 (1280x720p HD, 50Download Torrent Magnet

#Time #S01E01 #1280x720p