They Live (1988) 2160p HDR 5. Full Torrent Magnet Download

Download Torrent They Live (1988) 2160p HDR 5. Movie Full in HD Result. Movie They Live (1988) 2160p HDR 5. Torrent Download full. Movie They Live (1988) 2160p HDR 5. torrent Magnet Download Full. They Live (1988) 2160p HDR 5. Full Movie Torrent Download And Magnet Download For your PC And Mobiles. Latest Movie They Live (1988) 2160p HDR 5. Download Link In Bottom.

Torrent And Magnet Links Below

www.imdb.com/title/tt0096256/

They influence our decisions without us knowing it. They numb our senses without us feeling it. They control our lives without us realizing it. They live.

Source: FGT (Remux)

Format : Matroska

Format version : Version 4

File size : 2.56 GiB

Duration : 1 h 34 min

Overall bit rate : 3 893 kb/s

Writing application : HandBrake 1.3.3 2020061300

Writing library : Lavf58.29.100

Video

ID : 1

Format : HEVC

Format/Info : High Efficiency Video Coding

Format profile : Main [email protected]@High

Codec ID : V_MPEGH/ISO/HEVC

Duration : 1 h 34 min

Bit rate : 3 496 kb/s

Width : 3 840 pixels

Height : 1 632 pixels

Display aspect ratio : 2.35:1

Frame rate mode : Constant

Frame rate : 23.976 (24000/1001) FPS

Color space : YUV

Chroma subsampling : 4:2:0

Bit depth : 10 bits

Bits/(Pixel*Frame) : 0.023

Stream size : 2.30 GiB (90%)

Writing library : x265 3.2.1+1-b5c86a64bbbe:[Windows][GCC 9.2.0][64 bit] 10bit

Color range : Full

Color primaries : BT.2020

Transfer characteristics : PQ

Matrix coefficients : BT.2020 non-constant

Audio

ID : 2

Format : AC-3

Format/Info : Audio Coding 3

Commercial name : Dolby Digital

Codec ID : A_AC3

Duration : 1 h 34 min

Bit rate mode : Constant

Bit rate : 320 kb/s

Channel(s) : 6 channels

Channel layout : L R C LFE Ls Rs

Sampling rate : 48.0 kHz

Frame rate : 31.250 FPS (1536 SPF)

Compression mode : Lossy

Delay relative to video : -5 ms

Stream size : 215 MiB (8%)

Title : Surround

Language : English

Text
Language : English

Language : English

Default : No

Forced : No

They Live (1988) 2160p HDR 5.Download Torrent Magnet

#Live #2160p #HDR