The Wizard of Oz (1939) (1080 Full Torrent Magnet Download

Download Torrent The Wizard of Oz (1939) (1080 Movie Full in HD Result. Movie The Wizard of Oz (1939) (1080 Torrent Download full. Movie The Wizard of Oz (1939) (1080 torrent Magnet Download Full. The Wizard of Oz (1939) (1080 Full Movie Torrent Download And Magnet Download For your PC And Mobiles. Latest Movie The Wizard of Oz (1939) (1080 Download Link In Bottom.

Torrent And Magnet Links Below

Media Information
This is something new. A UHD has been released. However, the quality leaves much to be desired and isn’t convincing. I would normally use the BD and use my new AI inference techniques to produce a sharp clean 4K source. However, this would be considered fake by the internet. I doubled down, and used the AI to render the movie internally into 8K and then back to a 2160p new source. This time convincing where the camera maintains focus.

To be fair, for 1939 they did their best on this one. But I still think I can help. — Joy

Media Information

Code:

General
Format                                   : Matroska

Format version                           : Version 4 / Version 2

File size                                : 5.55 GiB

Duration                                 : 1 h 41 min

Overall bit rate                         : 7 803 kb/s
Encoded date                             : UTC 2021-02-25 07:13:42

Writing application                      : mkvmerge v52.0.0 (‘Secret For The Mad’) 64-bit

Writing library                          : libebml v1.4.1 + libmatroska v1.6.2

Cover                                    : Yes

Attachments                              : cover.jpg / cover.jpg

Video
ID                                       : 1

Format                                   : HEVC

Format/Info                              : High Efficiency Video Coding

Format profile                           : Main [email protected]@Main

Codec ID                                 : V_MPEGH/ISO/HEVC

Duration                                 : 1 h 41 min

Bit rate                                 : 6 693 kb/s

Width                                    : 1 480 pixels

Height                                   : 1 080 pixels

Display aspect ratio                     : 1.370

Frame rate mode                          : Constant

Frame rate                               : 23.976 (24000/1001) FPS

Color space                              : YUV

Chroma subsampling                       : 4:2:0

Bit depth                                : 10 bits

Bits/(Pixel*Frame)                       : 0.175

Stream size                              : 4.76 GiB (86%)

Writing library                          : x265 3.2+9-971180b100f8:[Windows][MSVC 1923][64 bit] 10bit

Encoding settings                        : cpuid=1111039 / frame-threads=4 / numa-pools=24 / wpp / no-pmode / no-pme / no-psnr / ssim / log-level=2 / input-csp=1 / input-res=1480×1080 / interlace=0 / total-frames=146383 / level-idc=0 / high-tier=1 / uhd-bd=0 / ref=4 / no-allow-non-conformance / no-repeat-headers / annexb / no-aud / no-hrd / info / hash=0 / no-temporal-layers / open-gop / min-keyint=23 / keyint=250 / gop-lookahead=0 / bframes=8 / b-adapt=2 / b-pyramid / bframe-bias=40 / rc-lookahead=120 / lookahead-slices=4 / scenecut=40 / radl=0 / no-splice / no-intra-refresh / ctu=64 / min-cu-size=8 / rect / no-amp / max-tu-size=32 / tu-inter-depth=1 / tu-intra-depth=1 / limit-tu=0 / rdoq-level=2 / dynamic-rd=0.00 / ssim-rd / signhide / no-tskip / nr-intra=0 / nr-inter=0 / constrained-intra / strong-intra-smoothing / max-merge=5 / limit-refs=3 / limit-modes / me=3 / subme=7 / merange=57 / temporal-mvp / no-frame-dup / no-hme / weightp / no-weightb / no-analyze-src-pics / deblock=-3:-3 / sao / no-sao-non-deblock / rd=4 / selective-sao=4 / early-skip / rskip / no-fast-intra / no-tskip-fast / no-cu-lossless / no-b-intra / no-splitrd-skip / rdpenalty=0 / psy-rd=3.50 / psy-rdoq=2.50 / no-rd-refine / no-lossless / cbqpoffs=0 / crqpoffs=0 / rc=crf / crf=18.0 / qcomp=0.60 / qpstep=4 / stats-write=0 / stats-read=0 / ipratio=1.40 / pbratio=1.30 / aq-mode=3 / aq-strength=0.40 / cutree / zone-count=0 / no-strict-cbr / qg-size=32 / no-rc-grain / qpmax=69 / qpmin=0 / no-const-vbv / sar=0 / overscan=0 / videoformat=5 / range=0 / colorprim=2 / transfer=2 / colormatrix=2 / chromaloc=0 / display-window=0 / cll=0,0 / min-luma=0 / max-luma=1023 / log2-max-poc-lsb=8 / vui-timing-info / vui-hrd-info / slices=1 / no-opt-qp-pps / no-opt-ref-list-length-pps / no-multi-pass-opt-rps / scenecut-bias=0.05 / no-opt-cu-delta-qp / no-aq-motion / no-hdr / no-hdr-opt / no-dhdr10-opt / no-idr-recovery-sei / analysis-reuse-level=5 / scale-factor=0 / refine-intra=0 / refine-inter=0 / refine-mv=1 / refine-ctu-distortion=0 / no-limit-sao / ctu-info=0 / no-lowpass-dct / refine-analysis-type=0 / copy-pic=1 / max-ausize-factor=1.0 / no-dynamic-refine / no-single-sei / no-hevc-aq / no-svt / no-field / qp-adaptation-range=1.00

Default                                  : Yes

Forced                                   : No

Audio #1
ID                                       : 2

Format                                   : E-AC-3

Format/Info                              : Enhanced Audio Coding 3

Format settings, Endianness              : Big

Codec ID                                 : A_EAC3

Duration                                 : 1 h 41 min

Bit rate mode                            : Constant

Bit rate                                 : 448 kb/s

Channel(s)                               : 6 channels

Channel positions                        : Front: L C R, Side: L R, LFE

Sampling rate                            : 48.0 kHz

Frame rate                               : 187.500 FPS (256 spf)

Compression mode                         : Lossy

Stream size                              : 326 MiB (6%)

Language                                 : English

Default                                  : No

Forced                                   : No

Audio #2
ID                                       : 3

Format                                   : AAC

Format/Info                              : Advanced Audio Codec

Format profile                           : LC

Codec ID                                 : A_AAC

Duration                                 : 1 h 41 min

Bit rate                                 : 78.1 kb/s

Channel(s)                               : 2 channels

Channel positions                        : Front: L R

Sampling rate                            : 48.0 kHz

Frame rate                               : 46.875 FPS (1024 spf)

Compression mode                         : Lossy

Delay relative to video                  : 9 ms

Stream size                              : 56.8 MiB (1%)

Language                                 : French

Default                                  : No

Forced                                   : No

Audio #3
ID                                       : 4

Format                                   : AAC

Format/Info                              : Advanced Audio Codec

Format profile                           : LC

Codec ID                                 : A_AAC

Duration                                 : 1 h 41 min

Bit rate                                 : 78.1 kb/s

Channel(s)                               : 2 channels

Channel positions                        : Front: L R

Sampling rate                            : 48.0 kHz

Frame rate                               : 46.875 FPS (1024 spf)

Compression mode                         : Lossy

Delay relative to video                  : 9 ms

Stream size                              : 56.9 MiB (1%)

Language                                 : German

Default                                  : No

Forced                                   : No

Audio #4
ID                                       : 5

Format                                   : AAC

Format/Info                              : Advanced Audio Codec

Format profile                           : LC

Codec ID                                 : A_AAC

Duration                                 : 1 h 41 min

Bit rate                                 : 53.1 kb/s

Channel(s)                               : 1 channel

Channel positions                        : Front: C

Sampling rate                            : 48.0 kHz

Frame rate                               : 46.875 FPS (1024 spf)

Compression mode                         : Lossy

Delay relative to video                  : 9 ms

Stream size                              : 38.7 MiB (1%)

Language                                 : Spanish

Default                                  : No

Forced                                   : No

Audio #5
ID                                       : 6

Format                                   : AAC

Format/Info                              : Advanced Audio Codec

Format profile                           : LC

Codec ID                                 : A_AAC

Duration                                 : 1 h 41 min

Bit rate                                 : 76.4 kb/s

Channel(s)                               : 2 channels

Channel positions                        : Front: L R

Sampling rate                            : 48.0 kHz

Frame rate                               : 46.875 FPS (1024 spf)

Compression mode                         : Lossy

Delay relative to video                  : 9 ms

Stream size                              : 55.6 MiB (1%)

Language                                 : Russian

Default                                  : No

Forced                                   : No

Audio #6
ID                                       : 7

Format                                   : AAC

Format/Info                              : Advanced Audio Codec

Format profile                           : LC

Codec ID                                 : A_AAC

Duration                                 : 1 h 41 min

Bit rate                                 : 76.5 kb/s

Channel(s)                               : 2 channels

Channel positions                        : Front: L R

Sampling rate                            : 48.0 kHz

Frame rate                               : 46.875 FPS (1024 spf)

Compression mode                         : Lossy

Delay relative to video                  : 9 ms

Stream size                              : 55.7 MiB (1%)

Language                                 : Thai

Default                                  : No

Forced                                   : No

Audio #7
ID                                       : 10

Format                                   : AC-3

Format/Info                              : Audio Coding 3

Mode extension                           : CM (complete main)

Format settings, Endianness              : Big

Codec ID                                 : A_AC3

Duration                                 : 1 h 41 min

Bit rate mode                            : Constant

Bit rate                                 : 192 kb/s

Channel(s)                               : 2 channels

Channel positions                        : Front: L R

Sampling rate                            : 48.0 kHz

Frame rate                               : 31.250 FPS (1536 spf)

Bit depth                                : 16 bits

Compression mode                         : Lossy

Stream size                              : 140 MiB (2%)

Title                                    : Commentary

Language                                 : English

Default                                  : No

Forced                                   : No

Subtitle #1
ID                                       : 8

Format                                   : PGS

Muxing mode                              : zlib

Codec ID                                 : S_HDMV/PGS

Codec ID/Info                            : Picture based subtitle format used on BDs/HD-DVDs

Duration                                 : 1 h 39 min

Bit rate                                 : 38.6 kb/s

Count of elements                        : 3000

Stream size                              : 27.4 MiB (0%)

Language                                 : English

Default                                  : No

Forced                                   : No

Subtitle #2
ID                                       : 9

Format                                   : UTF-8

Codec ID                                 : S_TEXT/UTF8

Codec ID/Info                            : UTF-8 Plain Text

Duration                                 : 1 h 39 min

Bit rate                                 : 66 b/s

Count of elements                        : 1386

Stream size                              : 48.5 KiB (0%)

Language                                 : English

Default                                  : No

Forced                                   : No

Subtitle #3
ID                                       : 11

Format                                   : VobSub

Muxing mode                              : zlib

Codec ID                                 : S_VOBSUB

Codec ID/Info                            : Picture based subtitle format used on DVDs

Duration                                 : 1 h 41 min

Bit rate                                 : 9 527 b/s

Count of elements                        : 1289

Stream size                              : 6.91 MiB (0%)

Language                                 : French

Default                                  : No

Forced                                   : No

Subtitle #4
ID                                       : 12

Format                                   : VobSub

Muxing mode                              : zlib

Codec ID                                 : S_VOBSUB

Codec ID/Info                            : Picture based subtitle format used on DVDs

Duration                                 : 1 h 39 min

Bit rate                                 : 12.4 kb/s

Count of elements                        : 1529

Stream size                              : 8.81 MiB (0%)

Language                                 : German

Default                                  : No

Forced                                   : No

Subtitle #5
ID                                       : 13

Format                                   : VobSub

Muxing mode                              : zlib

Codec ID                                 : S_VOBSUB

Codec ID/Info                            : Picture based subtitle format used on DVDs

Duration                                 : 1 h 40 min

Bit rate                                 : 10.2 kb/s

Count of elements                        : 1389

Stream size                              : 7.33 MiB (0%)

Language                                 : Spanish

Default                                  : No

Forced                                   : No

Subtitle #6
ID                                       : 14

Format                                   : VobSub

Muxing mode                              : zlib

Codec ID                                 : S_VOBSUB

Codec ID/Info                            : Picture based subtitle format used on DVDs

Duration                                 : 1 h 39 min

Bit rate                                 : 9 694 b/s

Count of elements                        : 1051

Stream size                              : 6.91 MiB (0%)

Language                                 : Dutch

Default                                  : No

Forced                                   : No

Subtitle #7
ID                                       : 15

Format                                   : VobSub

Muxing mode                              : zlib

Codec ID                                 : S_VOBSUB

Codec ID/Info                            : Picture based subtitle format used on DVDs

Duration                                 : 1 h 41 min

Bit rate                                 : 9 257 b/s

Count of elements                        : 1425

Stream size                              : 6.69 MiB (0%)

Language                                 : Chinese

Default                                  : No

Forced                                   : No

Subtitle #8
ID                                       : 16

Format                                   : VobSub

Muxing mode                              : zlib

Codec ID                                 : S_VOBSUB

Codec ID/Info                            : Picture based subtitle format used on DVDs

Duration                                 : 1 h 41 min

Bit rate                                 : 10.1 kb/s

Count of elements                        : 1415

Stream size                              : 7.34 MiB (0%)

Language                                 : Chinese

Default                                  : No

Forced                                   : No

Subtitle #9
ID                                       : 17

Format                                   : VobSub

Muxing mode                              : zlib

Codec ID                                 : S_VOBSUB

Codec ID/Info                            : Picture based subtitle format used on DVDs

Duration                                 : 1 h 41 min

Bit rate                                 : 8 549 b/s

Count of elements                        : 1425

Stream size                              : 6.18 MiB (0%)

Language                                 : Korean

Default                                  : No

Forced                                   : No

Subtitle #10
ID                                       : 18

Format                                   : VobSub

Muxing mode                              : zlib

Codec ID                                 : S_VOBSUB

Codec ID/Info                            : Picture based subtitle format used on DVDs

Duration                                 : 1 h 41 min

Bit rate                                 : 10.5 kb/s

Count of elements                        : 1397

Stream size                              : 7.56 MiB (0%)

Language                                 : Spanish

Default                                  : No

Forced                                   : No

Subtitle #11
ID                                       : 19

Format                                   : VobSub

Muxing mode                              : zlib

Codec ID                                 : S_VOBSUB

Codec ID/Info                            : Picture based subtitle format used on DVDs

Duration                                 : 1 h 40 min

Bit rate                                 : 5 674 b/s

Count of elements                        : 1329

Stream size                              : 4.10 MiB (0%)

Language                                 : Arabic

Default                                  : No

Forced                                   : No

Subtitle #12
ID                                       : 20

Format                                   : VobSub

Muxing mode                              : zlib

Codec ID                                 : S_VOBSUB

Codec ID/Info                            : Picture based subtitle format used on DVDs

Duration                                 : 1 h 40 min

Bit rate                                 : 9 050 b/s

Count of elements                        : 1331

Stream size                              : 6.54 MiB (0%)

Language                                 : Czech

Default                                  : No

Forced                                   : No

Subtitle #13
ID                                       : 21

Format                                   : VobSub

Muxing mode                              : zlib

Codec ID                                 : S_VOBSUB

Codec ID/Info                            : Picture based subtitle format used on DVDs

Duration                                 : 1 h 40 min

Bit rate                                 : 9 663 b/s

Count of elements                        : 1401

Stream size                              : 6.98 MiB (0%)

Language                                 : Hungarian

Default                                  : No

Forced                                   : No

Subtitle #14
ID                                       : 22

Format                                   : VobSub

Muxing mode                              : zlib

Codec ID                                 : S_VOBSUB

Codec ID/Info                            : Picture based subtitle format used on DVDs

Duration                                 : 1 h 40 min

Bit rate                                 : 9 331 b/s

Count of elements                        : 1400

Stream size                              : 6.74 MiB (0%)

Language                                 : Polish

Default                                  : No

Forced                                   : No

Subtitle #15
ID                                       : 23

Format                                   : VobSub

Muxing mode                              : zlib

Codec ID                                 : S_VOBSUB

Codec ID/Info                            : Picture based subtitle format used on DVDs

Duration                                 : 1 h 40 min

Bit rate                                 : 10.6 kb/s

Count of elements                        : 1401

Stream size                              : 7.62 MiB (0%)

Language                                 : Russian

Default                                  : No

Forced                                   : No

Subtitle #16
ID                                       : 24

Format                                   : VobSub

Muxing mode                              : zlib

Codec ID                                 : S_VOBSUB

Codec ID/Info                            : Picture based subtitle format used on DVDs

Duration                                 : 1 h 41 min

Bit rate                                 : 10.7 kb/s

Count of elements                        : 1442

Stream size                              : 7.72 MiB (0%)

Language                                 : Thai

Default                                  : No

Forced                                   : No

Subtitle #17
ID                                       : 25

Format                                   : UTF-8

Codec ID                                 : S_TEXT/UTF8

Codec ID/Info                            : UTF-8 Plain Text

Duration                                 : 1 h 40 min

Bit rate                                 : 58 b/s

Count of elements                        : 962

Stream size                              : 42.6 KiB (0%)

Language                                 : Danish

Default                                  : No

Forced                                   : No

Subtitle #18
ID                                       : 26

Format                                   : UTF-8

Codec ID                                 : S_TEXT/UTF8

Codec ID/Info                            : UTF-8 Plain Text

Duration                                 : 1 h 38 min

Bit rate                                 : 106 b/s

Count of elements                        : 1377

Stream size                              : 76.8 KiB (0%)

Language                                 : Persian

Default                                  : No

Forced                                   : No

Subtitle #19
ID                                       : 27

Format                                   : UTF-8

Codec ID                                 : S_TEXT/UTF8

Codec ID/Info                            : UTF-8 Plain Text

Duration                                 : 1 h 37 min

Bit rate                                 : 70 b/s

Count of elements                        : 1319

Stream size                              : 50.3 KiB (0%)

Language                                 : Hebrew

Default                                  : No

Forced                                   : No

Subtitle #20
ID                                       : 28

Format                                   : UTF-8

Codec ID                                 : S_TEXT/UTF8

Codec ID/Info                            : UTF-8 Plain Text

Duration                                 : 1 h 39 min

Bit rate                                 : 66 b/s

Count of elements                        : 1372

Stream size                              : 48.0 KiB (0%)

Language                                 : Indonesian

Default                                  : No

Forced                                   : No

Subtitle #21
ID                                       : 29

Format                                   : UTF-8

Codec ID                                 : S_TEXT/UTF8

Codec ID/Info                            : UTF-8 Plain Text

Duration                                 : 1 h 39 min

Bit rate                                 : 56 b/s

Count of elements                        : 1389

Stream size                              : 41.6 KiB (0%)

Language                                 : Romanian

Default                                  : No

Forced                                   : No

Subtitle #22
ID                                       : 30

Format                                   : UTF-8

Codec ID                                 : S_TEXT/UTF8

Codec ID/Info                            : UTF-8 Plain Text

Duration                                 : 1 h 37 min

Bit rate                                 : 56 b/s

Count of elements                        : 912

Stream size                              : 40.5 KiB (0%)

Language                                 : Swedish

Default                                  : No

Forced                                   : No

Subtitle #23
ID                                       : 31

Format                                   : UTF-8

Codec ID                                 : S_TEXT/UTF8

Codec ID/Info                            : UTF-8 Plain Text

Duration                                 : 1 h 41 min

Bit rate                                 : 141 b/s

Count of elements                        : 1411

Stream size                              : 105 KiB (0%)

Language                                 : Thai

Default                                  : No

Forced                                   : No

Subtitle #24
ID                                       : 32

Format                                   : UTF-8

Codec ID                                 : S_TEXT/UTF8

Codec ID/Info                            : UTF-8 Plain Text

Duration                                 : 1 h 41 min

Bit rate                                 : 85 b/s

Count of elements                        : 1252

Stream size                              : 63.4 KiB (0%)

Language                                 : Vietnamese

Default                                  : No

Forced                                   : No

Menu
00:00:00.000                             : en:Chapter 01

00:01:35.303                             : en:Chapter 02

00:01:54.823                             : en:Chapter 03

00:05:48.348                             : en:Chapter 04

00:08:02.064                             : en:Chapter 05

00:10:20.578                             : en:Chapter 06

00:11:02.370                             : en:Chapter 07

00:12:46.390                             : en:Chapter 08

00:15:05.988                             : en:Chapter 09

00:17:01.186                             : en:Chapter 10

00:19:26.456                             : en:Chapter 11

00:22:58.752                             : en:Chapter 12

00:23:43.338                             : en:Chapter 13

00:24:41.563                             : en:Chapter 14

00:27:35.153                             : en:Chapter 15

00:28:03.264                             : en:Chapter 16

00:29:06.619                             : en:Chapter 17

00:31:05.530                             : en:Chapter 18

00:32:34.661                             : en:Chapter 19

00:33:13.908                             : en:Chapter 20

00:34:03.750                             : en:Chapter 21

00:36:32.315                             : en:Chapter 22

00:38:38.607                             : en:Chapter 23

00:39:15.603                             : en:Chapter 24

00:40:29.343                             : en:Chapter 25

00:42:46.021                             : en:Chapter 26

00:45:55.294                             : en:Chapter 27

00:47:00.317                             : en:Chapter 28

00:47:56.123                             : en:Chapter 29

00:49:04.816                             : en:Chapter 30

00:52:07.124                             : en:Chapter 31

00:52:51.042                             : en:Chapter 32

00:53:53.605                             : en:Chapter 33

00:57:20.019                             : en:Chapter 34

00:58:23.500                             : en:Chapter 35

01:00:34.213                             : en:Chapter 36

01:02:14.021                             : en:Chapter 37

01:03:58.417                             : en:Chapter 38

01:08:45.663                             : en:Chapter 39

01:12:44.735                             : en:Chapter 40

01:14:31.133                             : en:Chapter 41

01:16:11.400                             : en:Chapter 42

01:17:24.973                             : en:Chapter 43

01:20:38.959                             : en:Chapter 44

01:23:19.494                             : en:Chapter 45

01:24:50.835                             : en:Chapter 46

01:25:55.066                             : en:Chapter 47

01:26:59.255                             : en:Chapter 48

01:28:23.214                             : en:Chapter 49

01:29:23.274                             : en:Chapter 50

01:33:47.913                             : en:Chapter 51

01:35:50.244                             : en:Chapter 52

01:37:33.264                             : en:Chapter 53

01:38:39.455                             : en:Chapter 54

01:41:23.952                             : en:Chapter 55

Source Information

Code:

Release:
The Wizard of Oz (1939) Bluray.2160p.AI.DTS.UTR.mkv (49.87 GBs)

Code:


Note From UTR
Whilst we are happy for our releases to be re-posted on a platform we aren’t on, please do so in an ‘as-is’ format. We ask that you do not create a new torrent, include all descriptions you see above including the UTR logo, tags, notes and screenshots. If you’d like to become a permanent poster on a website we don’t post to, feel free to get in contact with a UTR member.

If possible please donate for seedboxes.

BTC – 1QA5fum5AyXvWzdVCkQzUNvw3Ef15fHRaR

Monero – 8AuksPSzY7fen3HHT1a2342PgVy4J93MKfXG3AAcayV76miTyJ3sNfn38srwrpLirGfeR5DwhTL8GW8pdQgT7bZcJ25ynMx

Dash – Xh4mNs6uwZdpCEX2HSEVwGvPD7yKxZ1Ccd

Ethereum – 0x51c06c94e74c16735a7a6e841ad29fc90a84eb1f

The Wizard of Oz (1939) (1080Download Torrent Magnet

#Wizard