The Wife (2021) Hindi 720p WE Full Torrent Magnet Download

Download Torrent The Wife (2021) Hindi 720p WE Movie Full in HD Result. Movie The Wife (2021) Hindi 720p WE Torrent Download full. Movie The Wife (2021) Hindi 720p WE torrent Magnet Download Full. The Wife (2021) Hindi 720p WE Full Movie Torrent Download And Magnet Download For your PC And Mobiles. Latest Movie The Wife (2021) Hindi 720p WE Download Link In Bottom.

Torrent And Magnet Links Below

The Wife (2021):

An urban couple, Varun and Arya, is threatened when they move into a new apartment, seemingly haunted by a spirit.

Cast: Gurmeet Choudhary and Sayani Dutta.

Directed by Sarmad Khan.

Format : Matroska
Format version : Version 4
File size : 622 MiB
Duration : 1 h 46 min
Overall bit rate mode : Variable
Overall bit rate : 815 kb/s

Video
ID : 1
Format : AVC
Format/Info : Advanced Video Codec
Format profile : [email protected]
Format settings : CABAC / 4 Ref Frames
Format settings, CABAC : Yes
Format settings, Reference frames : 4 frames
Codec ID : V_MPEG4/ISO/AVC
Duration : 1 h 46 min
Bit rate mode : Variable
Bit rate : 752 kb/s
Maximum bit rate : 2 250 kb/s
Width : 1 280 pixels
Height : 720 pixels

Audio
ID : 2
Format : AAC LC
Format/Info : Advanced Audio Codec Low Complexity
Codec ID : A_AAC-2
Duration : 1 h 46 min
Bit rate : 61.4 kb/s
Channel(s) : 2 channels
Channel layout : L R
Sampling rate : 48.0 kHz
Frame rate : 46.875 FPS (1024 SPF)
Compression mode : Lossy
Delay relative to video : -33 ms
Stream size : 46.8 MiB (8%)
Language : Hindi
Default : Yes
Forced : No

Text
ID : 3
Format : UTF-8
Codec ID : S_TEXT/UTF8
Codec ID/Info : UTF-8 Plain Text
Duration : 1 h 44 min
Bit rate : 28 b/s
Count of elements : 846
Stream size : 21.6 KiB (0%)
Language : English

The Wife (2021) Hindi 720p WEDownload Torrent Magnet

#Wife #Hindi #720p