The Wife (2021) Hindi 1080p W Full Torrent Magnet Download

Download Torrent The Wife (2021) Hindi 1080p W Movie Full in HD Result. Movie The Wife (2021) Hindi 1080p W Torrent Download full. Movie The Wife (2021) Hindi 1080p W torrent Magnet Download Full. The Wife (2021) Hindi 1080p W Full Movie Torrent Download And Magnet Download For your PC And Mobiles. Latest Movie The Wife (2021) Hindi 1080p W Download Link In Bottom.

Torrent And Magnet Links Below

The Wife (2021):

An urban couple, Varun and Arya, is threatened when they move into a new apartment, seemingly haunted by a spirit.

Cast: Gurmeet Choudhary and Sayani Dutta.

Directed by Sarmad Khan.

Format : Matroska
Format version : Version 4
File size : 1.64 GiB
Duration : 1 h 46 min
Overall bit rate : 2 205 kb/s

Video
ID : 1
Format : AVC
Format/Info : Advanced Video Codec
Format profile : [email protected]
Format settings : CABAC / 4 Ref Frames
Format settings, CABAC : Yes
Format settings, Reference frames : 4 frames
Codec ID : V_MPEG4/ISO/AVC
Duration : 1 h 46 min
Bit rate : 2 080 kb/s
Width : 1 920 pixels
Height : 1 040 pixels
Display aspect ratio : 1.85:1
Frame rate mode : Constant
Frame rate : 25.000 FPS
Color space : YUV
Chroma subsampling : 4:2:0
Bit depth : 8 bits
Scan type : Progressive
Bits/(Pixel*Frame) : 0.042
Stream size : 1.52 GiB (93%)

Audio
ID : 2
Format : AAC LC SBR
Format/Info : Advanced Audio Codec Low Complexity with Spectral Band Replication
Commercial name : HE-AAC
Format settings : Explicit
Codec ID : A_AAC-2
Duration : 1 h 46 min
Bit rate : 159 kb/s
Channel(s) : 2 channels
Channel layout : L R
Sampling rate : 48.0 kHz
Frame rate : 23.438 FPS (2048 SPF)
Compression mode : Lossy
Stream size : 121 MiB (7%)
Language : Hindi
Default : Yes
Forced : No

Text
ID : 3
Format : UTF-8
Codec ID : S_TEXT/UTF8
Codec ID/Info : UTF-8 Plain Text
Duration : 1 h 44 min
Bit rate : 28 b/s
Count of elements : 846
Stream size : 21.6 KiB (0%)
Language : English

The Wife (2021) Hindi 1080p WDownload Torrent Magnet

#Wife #Hindi #1080p