The Usual Suspects (1995) [OP Full Torrent Magnet Download

Download Torrent The Usual Suspects (1995) [OP Movie Full in HD Result. Movie The Usual Suspects (1995) [OP Torrent Download full. Movie The Usual Suspects (1995) [OP torrent Magnet Download Full. The Usual Suspects (1995) [OP Full Movie Torrent Download And Magnet Download For your PC And Mobiles. Latest Movie The Usual Suspects (1995) [OP Download Link In Bottom.

Torrent And Magnet Links Below

Quote:

PLEASE SEED TO MAINTAIN A BALANCED SEEDER:LEECHER RATIO.

The BluRay release of this movie is very grainy.
So, I have slightly sharpened the video and suppressed the grain for better detail and less noise.

OPEN MATTE AND WIDESCREEN (BluRay) COMPARISON:







Code:


MEDIAINFO:

General

Format                                   : Matroska

Format version                           : Version 4

File size                                : 1.65 GiB

Duration                                 : 1 h 46 min

Overall bit rate                         : 2 222 kb/s

Movie name                               : The Usual Suspects (1995) [OPEN MATTE] [WEB-DL 1080p 10bit DD5.1 x265] – Encoded by Thakur

Attachments                              : The Usual Suspects (1995).jpg

Video

ID                                       : 1

Format                                   : HEVC

Format/Info                              : High Efficiency Video Coding

Format profile                           : Main [email protected]@Main

Codec ID                                 : V_MPEGH/ISO/HEVC

Duration                                 : 1 h 46 min

Bit rate                                 : 1 821 kb/s

Width                                    : 1 920 pixels

Height                                   : 1 080 pixels

Display aspect ratio                     : 16:9

Frame rate mode                          : Constant

Frame rate                               : 23.976 (24000/1001) FPS

Color space                              : YUV

Chroma subsampling                       : 4:2:0

Bit depth                                : 10 bits

Bits/(Pixel*Frame)                       : 0.037

Stream size                              : 1.35 GiB (82%)

Title                                    : Encoded by Thakur

Writing library                          : x265 3.2.1+1-b5c86a64bbbe:[Windows][GCC 9.2.0][64 bit] 10bit

Encoding settings                        : cpuid=1111039 / frame-threads=3 / numa-pools=8 / wpp / no-pmode / no-pme / no-psnr / no-ssim / log-level=2 / input-csp=1 / input-res=1920×1080 / interlace=0 / total-frames=0 / level-idc=0 / high-tier=1 / uhd-bd=0 / ref=2 / no-allow-non-conformance / no-repeat-headers / annexb / no-aud / no-hrd / info / hash=0 / no-temporal-layers / open-gop / min-keyint=24 / keyint=240 / gop-lookahead=0 / bframes=4 / b-adapt=0 / b-pyramid / bframe-bias=0 / rc-lookahead=15 / lookahead-slices=6 / scenecut=40 / radl=0 / no-splice / no-intra-refresh / ctu=64 / min-cu-size=8 / no-rect / no-amp / max-tu-size=32 / tu-inter-depth=1 / tu-intra-depth=1 / limit-tu=0 / rdoq-level=0 / dynamic-rd=0.00 / no-ssim-rd / signhide / no-tskip / nr-intra=0 / nr-inter=0 / no-constrained-intra / strong-intra-smoothing / max-merge=2 / limit-refs=3 / no-limit-modes / me=1 / subme=2 / merange=57 / temporal-mvp / no-hme / weightp / no-weightb / no-analyze-src-pics / deblock=0:0 / sao / no-sao-non-deblock / rd=2 / selective-sao=4 / early-skip / rskip / fast-intra / no-tskip-fast / no-cu-lossless / no-b-intra / no-splitrd-skip / rdpenalty=0 / psy-rd=2.00 / psy-rdoq=0.00 / no-rd-refine / no-lossless / cbqpoffs=0 / crqpoffs=0 / rc=crf / crf=23.0 / qcomp=0.60 / qpstep=4 / stats-write=0 / stats-read=0 / ipratio=1.40 / pbratio=1.30 / aq-mode=2 / aq-strength=1.00 / cutree / zone-count=0 / no-strict-cbr / qg-size=32 / no-rc-grain / qpmax=69 / qpmin=0 / no-const-vbv / sar=1 / overscan=0 / videoformat=5 / range=0 / colorprim=1 / transfer=1 / colormatrix=1 / chromaloc=0 / display-window=0 / cll=0,0 / min-luma=0 / max-luma=1023 / log2-max-poc-lsb=8 / vui-timing-info / vui-hrd-info / slices=1 / no-opt-qp-pps / no-opt-ref-list-length-pps / no-multi-pass-opt-rps / scenecut-bias=0.05 / no-opt-cu-delta-qp / no-aq-motion / no-hdr / no-hdr-opt / no-dhdr10-opt / no-idr-recovery-sei / analysis-reuse-level=5 / scale-factor=0 / refine-intra=0 / refine-inter=0 / refine-mv=1 / refine-ctu-distortion=0 / no-limit-sao / ctu-info=0 / no-lowpass-dct / refine-analysis-type=0 / copy-pic=1 / max-ausize-factor=1.0 / no-dynamic-refine / no-single-sei / no-hevc-aq / no-svt / no-field / qp-adaptation-range=1.00

Language                                 : English

Default                                  : Yes
Forced                                   : No

Color range                              : Limited

Color primaries                          : BT.709

Transfer characteristics                 : BT.709

Matrix coefficients                      : BT.709

Audio

ID                                       : 2

Format                                   : AC-3

Format/Info                              : Audio Coding 3

Commercial name                          : Dolby Digital

Codec ID                                 : A_AC3

Duration                                 : 1 h 46 min

Bit rate mode                            : Constant

Bit rate                                 : 384 kb/s

Channel(s)                               : 6 channels

Channel layout                           : L R C LFE Ls Rs

Sampling rate                            : 48.0 kHz

Frame rate                               : 31.250 FPS (1536 SPF)

Compression mode                         : Lossy

Delay relative to video                  : -5 ms

Stream size                              : 291 MiB (17%)

Title                                    : Dolby Digital 5.1 384kbps – Encoded by Thakur

Language                                 : English

Service kind                             : Complete Main

Default                                  : Yes

Forced                                   : No

Text #1

ID                                       : 3

Format                                   : PGS

Muxing mode                              : zlib

Codec ID                                 : S_HDMV/PGS

Codec ID/Info                            : Picture based subtitle format used on BDs/HD-DVDs

Duration                                 : 1 h 38 min

Bit rate                                 : 50.2 kb/s

Count of elements                        : 2944

Stream size                              : 35.5 MiB (2%)

Title                                    : PGS [SDH] (BluRay) – Encoded by Thakur

Language                                 : English

Default                                  : No

Forced                                   : No

Text #2

ID                                       : 4

Format                                   : UTF-8

Codec ID                                 : S_TEXT/UTF8

Codec ID/Info                            : UTF-8 Plain Text

Duration                                 : 1 h 39 min

Bit rate                                 : 68 b/s

Count of elements                        : 1279

Stream size                              : 49.5 KiB (0%)

Title                                    : SRT – Encoded by Thakur

Language                                 : English

Default                                  : Yes

Forced                                   : No

Menu

00:00:00.000                             : en:Main Title

00:02:17.846                             : en:The Last Smoke

00:05:11.644                             : en:Rounding Up…

00:08:02.732                             : en:…the Usual Suspects
00:12:06.058                             : en:Five Guys in a Room

00:16:56.056                             : en:Two Survivors

00:18:00.079                             : en:Not an Interrogation

00:20:20.510                             : en:Hungarian Burn Victim

00:21:56.064                             : en:”I’m Smarter Than You”

00:26:03.478                             : en:After the Lineup

00:28:27.414                             : en:Convincing Keaton

00:31:20.461                             : en:Ny’s Finest Taxi Service

00:34:47.043                             : en:The Fence in California

00:37:28.246                             : en:”Dean Keaton Was Dead”

00:39:37.958                             : en:He Saw the Devil

00:41:26.859                             : en:”There Was a Lawyer…”

00:43:07.209                             : en:Redfoot Makes an Offer

00:46:15.439                             : en:Bad Day for a Heist

00:50:39.661                             : en:”Who’s Keyser Soze?”

00:51:56.321                             : en:Kobayashi

00:57:01.709                             : en:”a Gift From Mr. Soze”

00:59:13.258                             : en:One Day in Turkey

01:04:44.213                             : en:Finding Fenster

01:07:07.273                             : en:No Threat to Kobayashi

01:13:08.717                             : en:A Logistical Nightmare

01:14:18.036                             : en:Ready, Set, Shoot

01:22:31.738                             : en:A Rat Naming Names

01:23:37.804                             : en:No-Dope Boat

01:28:40.940                             : en:And Then There Was One

01:32:39.178                             : en:”He Was My Friend!”

01:37:55.744                             : en:The Writing on the Wall

01:42:39.528                             : en:End Credits

The Usual Suspects (1995) [OPDownload Torrent Magnet

#Usual #Suspects