The Terminator (1984) REMASTE Full Torrent Magnet Download

Download Torrent The Terminator (1984) REMASTE Movie Full in HD Result. Movie The Terminator (1984) REMASTE Torrent Download full. Movie The Terminator (1984) REMASTE torrent Magnet Download Full. The Terminator (1984) REMASTE Full Movie Torrent Download And Magnet Download For your PC And Mobiles. Latest Movie The Terminator (1984) REMASTE Download Link In Bottom.

Torrent And Magnet Links Below

My Terminator regrade has ended up being more popular than I expected so after some consideration I decided that I should also include the best audio tracks available. So I went back to the two official blu-rays I own and extracted the DTS-HD MA 5.1 audio track from the remastered blu-ray and the uncompressed 5.1 PCM audio track from the original blu-ray release. Both have been added to this release as well as the original 2.1 mix taken from the Laserdisc. Having listened carefully to both 5.1 tracks, I prefer the DTS-HD MA 5.1 track from the remastered blu-ray so that is the audio track that I have made the default for this release. Enjoy!

Blu-ray 1:

Regraded 1:

Blu-ray 2:

Regraded 2:

Blu-ray 3:

Regraded 3:

Blu-ray 4:

Regraded 4:

Video

ID : 1

Format : AVC

Format/Info : Advanced Video Codec

Format profile : [email protected]
Format settings, CABAC : Yes

Format settings, RefFrames : 3 frames

Codec ID : V_MPEG4/ISO/AVC

Duration : 1 h 47 min

Bit rate mode : Variable

Bit rate : 19.5 Mb/s

Maximum bit rate : 26.5 Mb/s

Width : 1 920 pixels

Height : 1 080 pixels

Audio #1

ID : 2

Format : DTS

Format/Info : Digital Theater Systems

Format profile : MA / Core

Mode : 16

Format settings, Endianness : Big

Codec ID : A_DTS

Duration : 1 h 47 min

Bit rate mode : Variable / Constant

Bit rate : 1 754 kb/s / 1 509 kb/s

Channel(s) : 3 channels

Channel positions : Front: L R, LFE

Sampling rate : 48.0 kHz

Frame rate : 93.750 FPS (512 SPF)

Bit depth : 24 bits

Compression mode : Lossless / Lossy

Stream size : 1.31 GiB (6%)

Language : English

Default : No

Forced : No

Audio #2

ID : 5

Format : PCM

Codec ID : A_PCM/INT/LIT

Duration : 1 h 47 min

Bit rate mode : Constant

Bit rate : 4 608 kb/s

Channel(s) : 6 channels

Sampling rate : 48.0 kHz

Frame rate : 32.000 FPS (1500 SPF)

Bit depth : 16 bits

Delay relative to video : 20 ms

Stream size : 3.45 GiB (16%)

Language : English

Default : No

Forced : No

Audio #3

ID : 6

Format : DTS

Format/Info : Digital Theater Systems

Format profile : MA / Core

Mode : 16

Format settings, Endianness : Big

Codec ID : A_DTS

Duration : 1 h 47 min

Bit rate mode : Variable / Constant

Bit rate : 4 119 kb/s / 1 509 kb/s

Channel(s) : 6 channels

Channel positions : Front: L C R, Side: L R, LFE

Sampling rate : 48.0 kHz

Frame rate : 93.750 FPS (512 SPF)

Bit depth : 24 bits

Compression mode : Lossless / Lossy

Stream size : 3.08 GiB (14%)

Language : English

Default : Yes

Forced : No

The Terminator (1984) REMASTEDownload Torrent Magnet

#Terminator #REMASTE