The.Spiderwick.Chronicles.200 Full Torrent Magnet Download

Download Torrent The.Spiderwick.Chronicles.200 Movie Full in HD Result. Movie The.Spiderwick.Chronicles.200 Torrent Download full. Movie The.Spiderwick.Chronicles.200 torrent Magnet Download Full. The.Spiderwick.Chronicles.200 Full Movie Torrent Download And Magnet Download For your PC And Mobiles. Latest Movie The.Spiderwick.Chronicles.200 Download Link In Bottom.

Torrent And Magnet Links Below

The.Spiderwick.Chronicles.2008.BRRip.XviD.B4ND1T69

Director: Mark Waters

Writers: Karey Kirkpatrick (screenplay), David Berenbaum (screenplay)

Stars: Freddie Highmore, Sarah Bolger, David Strathairn

Plot/Story:

Upon moving into the run-down Spiderwick Estate with their mother, twin brothers Jared and Simon Grace, along with their sister Mallory, find themselves pulled into an alternate world full of faeries and other creatures.

General

Complete name : The.Spiderwick.Chronicles.2008.BRRip.XviD.B4ND1T69.avi

Format : AVI

Format/Info : Audio Video Interleave

File size : 1.16 GiB

Duration : 1 h 35 min

Overall bit rate : 1 741 kb/s

Subtitles : Yes…Included(HI)

Video

ID : 0

Format : MPEG-4 Visual

Format profile : Advanced [email protected]
Format settings, BVOP : 2

Format settings, QPel : No

Format settings, GMC : No warppoints

Format settings, Matrix : Default (H.263)

Codec ID : XVID

Codec ID/Hint : XviD

Duration : 1 h 35 min

Bit rate : 1 600 kb/s

Width : 720 pixels

Height : 304 pixels

Display aspect ratio : 2.35:1

Frame rate : 23.976 (24000/1001) FPS

Color space : YUV

Chroma subsampling : 4:2:0

Bit depth : 8 bits

Scan type : Progressive

Compression mode : Lossy

Bits/(Pixel*Frame) : 0.305

Stream size : 1.07 GiB (92%)

Writing library : XviD 64

Audio

ID : 1

Format : MPEG Audio

Format version : Version 1

Format profile : Layer 3

Codec ID : 55

Codec ID/Hint : MP3

Duration : 1 h 35 min

Bit rate mode : Constant

Bit rate : 128 kb/s

Channel(s) : 2 channels

Sampling rate : 48.0 kHz

Compression mode : Lossy

Stream size : 87.7 MiB (7%)

Alignment : Aligned on interleaves

Interleave, duration : 24 ms (0.58 video frame)

Screenshots:









Please Seed For As Long As Possible

Or At Least 1:1 Ratio…Thanks

Enjoy Peeps

The.Spiderwick.Chronicles.200Download Torrent Magnet

#TheSpiderwickChronicles200