The Spiderwick Chronicles 200 Full Torrent Magnet Download

Download Torrent The Spiderwick Chronicles 200 Movie Full in HD Result. Movie The Spiderwick Chronicles 200 Torrent Download full. Movie The Spiderwick Chronicles 200 torrent Magnet Download Full. The Spiderwick Chronicles 200 Full Movie Torrent Download And Magnet Download For your PC And Mobiles. Latest Movie The Spiderwick Chronicles 200 Download Link In Bottom.

Torrent And Magnet Links Below

Greets

Admin , Moderator , Noir, Ex0duS5150, theeshiznit, MisterQ, UserHEVC, miok, Silmarillion, Mr. Blue, MaDHeX and many more ;

The Spiderwick Chronicles 2008 x264 720p Esub BluRay Dual Audio English Hindi THE GOPI SAHI

Format : Matroska

Format version : Version 4

File size : 750 MiB

Duration : 1 h 35 min

Overall bit rate : 1 094 kb/s

Movie name : The Spiderwick Chronicles 2008 GOPI SAHI

Encoded date : UTC 2020-11-26 11:48:43

Video

ID : 1

Format : AVC

Format/Info : Advanced Video Codec

Format profile : [email protected]
Format settings : CABAC / 5 Ref Frames

Format settings, CABAC : Yes

Format settings, Reference fra : 5 frames

Codec ID : V_MPEG4/ISO/AVC

Duration : 1 h 35 min

Bit rate : 899 kb/s

Width : 1 280 pixels

Height : 534 pixels

Display aspect ratio : 2.40:1

Frame rate mode : Constant

Frame rate : 23.976 (24000/1001) FPS

Color space : YUV

Chroma subsampling : 4:2:0

Bit depth : 8 bits

Scan type : Progressive

Bits/(Pixel*Frame) : 0.055

Stream size : 616 MiB (82%)

Title : GOPI SAHI

Writing library : x264 core 157 r2935 545de2f

Audio #1

ID : 2

Format : AAC LC

Format/Info : Advanced Audio Codec Low Complexity

Codec ID : A_AAC-2

Duration : 1 h 35 min

Bit rate : 96.0 kb/s

Channel(s) : 2 channels

Channel layout : L R

Sampling rate : 48.0 kHz

Frame rate : 46.875 FPS (1024 SPF)

Compression mode : Lossy

Delay relative to video : 979 ms

Stream size : 66.0 MiB (9%)

Title : GOPI SAHI

Language : Hindi

Default : Yes

Forced : No

Audio #2

ID : 3

Format : AAC LC

Format/Info : Advanced Audio Codec Low Complexity

Codec ID : A_AAC-2

Duration : 1 h 35 min

Bit rate : 96.0 kb/s

Channel(s) : 2 channels

Channel layout : L R

Sampling rate : 48.0 kHz

Frame rate : 46.875 FPS (1024 SPF)

Compression mode : Lossy

Delay relative to video : -21 ms

Stream size : 66.1 MiB (9%)

Title : GOPI SAHI

Language : English

Default : No

Forced : No

Text

ID : 4

Format : UTF-8

Codec ID : S_TEXT/UTF8

Codec ID/Info : UTF-8 Plain Text

Duration : 1 h 23 min

Bit rate : 56 b/s

Count of elements : 1061

Stream size : 34.9 KiB (0%)

Title : GOPI SAHI

Language : English

Default : Yes

Forced : No

The Spiderwick Chronicles 200Download Torrent Magnet

#Spiderwick #Chronicles