The.Shadow.1994.BRRip.XviD.B4 Full Torrent Magnet Download

Download Torrent The.Shadow.1994.BRRip.XviD.B4 Movie Full in HD Result. Movie The.Shadow.1994.BRRip.XviD.B4 Torrent Download full. Movie The.Shadow.1994.BRRip.XviD.B4 torrent Magnet Download Full. The.Shadow.1994.BRRip.XviD.B4 Full Movie Torrent Download And Magnet Download For your PC And Mobiles. Latest Movie The.Shadow.1994.BRRip.XviD.B4 Download Link In Bottom.

Torrent And Magnet Links Below

The.Shadow.1994.BRRip.XviD.B4ND1T69

Director: Russell Mulcahy

Writers: Walter B. Gibson (character The Shadow from stories), David Koepp

Stars: Alec Baldwin, John Lone, Penelope Ann Miller

Plot/Story:

In 1930s New York City, The Shadow (Alec Baldwin) battles his nemesis, Shiwan Khan (John Lone), who is building an atomic bomb.

General

Complete name : The.Shadow.1994.BRRip.XviD.B4ND1T69.avi

Format : AVI

Format/Info : Audio Video Interleave

File size : 1.31 GiB

Duration : 1 h 47 min

Overall bit rate : 1 741 kb/s

Subtitles : Yes…Included(HI)

Video

ID : 0

Format : MPEG-4 Visual

Format profile : Advanced [email protected]
Format settings, BVOP : 2

Format settings, QPel : No

Format settings, GMC : No warppoints

Format settings, Matrix : Default (H.263)

Codec ID : XVID

Codec ID/Hint : XviD

Duration : 1 h 47 min

Bit rate : 1 600 kb/s

Width : 720 pixels

Height : 400 pixels

Display aspect ratio : 16:9

Frame rate : 23.976 (24000/1001) FPS

Color space : YUV

Chroma subsampling : 4:2:0

Bit depth : 8 bits

Scan type : Progressive

Compression mode : Lossy

Bits/(Pixel*Frame) : 0.232

Stream size : 1.20 GiB (92%)

Writing library : XviD 64

Audio

ID : 1

Format : MPEG Audio

Format version : Version 1

Format profile : Layer 3

Codec ID : 55

Codec ID/Hint : MP3

Duration : 1 h 47 min

Bit rate mode : Constant

Bit rate : 128 kb/s

Channel(s) : 2 channels

Sampling rate : 48.0 kHz

Compression mode : Lossy

Stream size : 98.4 MiB (7%)

Alignment : Aligned on interleaves

Interleave, duration : 24 ms (0.58 video frame)

Screenshots:









Please Seed For As Long As Possible

Or At Least 1:1 Ratio…Thanks

Enjoy Peeps

The.Shadow.1994.BRRip.XviD.B4Download Torrent Magnet

#TheShadow1994BRRipXviDB4