The Scorpion King 5-Movie Col Full Torrent Magnet Download

Download Torrent The Scorpion King 5-Movie Col Movie Full in HD Result. Movie The Scorpion King 5-Movie Col Torrent Download full. Movie The Scorpion King 5-Movie Col torrent Magnet Download Full. The Scorpion King 5-Movie Col Full Movie Torrent Download And Magnet Download For your PC And Mobiles. Latest Movie The Scorpion King 5-Movie Col Download Link In Bottom.

Torrent And Magnet Links Below

Warrior. Legend. Hero. King…

The Scorpion King 5-Movie Collection (2002-2018) 1080p 10bit Bluray x265 HEVC [Org DD / DTS 5.1 Hindi + DD 5.1 English] MSubs ~ TombDoc

The Scorpion King (2002) 1080p 10bit Bluray x265 HEVC [Org DD 5.1 Hindi + DD 5.1 English] MSubs ~ TombDoc

Code:

Format                                   : Matroska

Format version                           : Version 4

File size                                : 3.39 GiB

Duration                                 : 1 h 31 min

Overall bit rate                         : 5 311 kb/s

Video

ID                                       : 1

Format                                   : HEVC

Format/Info                              : High Efficiency Video Coding

Format profile                           : Main [email protected]@Main

Codec ID                                 : V_MPEGH/ISO/HEVC

Duration                                 : 1 h 31 min

Bit rate                                 : 3 997 kb/s

Width                                    : 1 920 pixels

Height                                   : 816 pixels

Display aspect ratio                     : 2.35:1

Frame rate mode                          : Constant

Frame rate                               : 23.976 (24000/1001) FPS

Color space                              : YUV

Chroma subsampling                       : 4:2:0

Bit depth                                : 10 bits

Bits/(Pixel*Frame)                       : 0.106

Stream size                              : 2.55 GiB (75%)

Default                                  : Yes

Forced                                   : No

Audio #1

ID                                       : 2

Format                                   : E-AC-3

Format/Info                              : Enhanced AC-3

Commercial name                          : Dolby Digital Plus

Codec ID                                 : A_EAC3

Duration                                 : 1 h 31 min

Bit rate mode                            : Constant

Bit rate                                 : 640 kb/s

Channel(s)                               : 6 channels

Channel layout                           : L R C LFE Ls Rs

Sampling rate                            : 48.0 kHz

Frame rate                               : 31.250 FPS (1536 SPF)

Compression mode                         : Lossy

Delay relative to video                  : 1 s 92 ms

Stream size                              : 419 MiB (12%)

Title                                    : Org NF DD+ 5.1 640Kbps ~ TombDoc

Language                                 : Hindi

Service kind                             : Complete Main

Default                                  : Yes

Forced                                   : Yes

Audio #2

ID                                       : 3

Format                                   : AC-3

Format/Info                              : Audio Coding 3

Commercial name                          : Dolby Digital

Codec ID                                 : A_AC3

Duration                                 : 1 h 31 min

Bit rate mode                            : Constant

Bit rate                                 : 640 kb/s

Channel(s)                               : 6 channels

Channel layout                           : L R C LFE Ls Rs

Sampling rate                            : 48.0 kHz

Frame rate                               : 31.250 FPS (1536 SPF)

Compression mode                         : Lossy

Delay relative to video                  : 1 s 1 ms

Stream size                              : 418 MiB (12%)

Title                                    : DD 5.1 English

Language                                 : English

Service kind                             : Complete Main

Default                                  : No

Forced                                   : No

Text #1

ID                                       : 4

Format                                   : PGS

Muxing mode                              : zlib

Codec ID                                 : S_HDMV/PGS

Codec ID/Info                            : Picture based subtitle format used on BDs/HD-DVDs

Duration                                 : 1 h 30 min

Bit rate                                 : 18.9 kb/s

Count of elements                        : 1296

Stream size                              : 12.2 MiB (0%)

Title                                    : Hindi BD-PGS

Language                                 : Hindi

Default                                  : Yes

Forced                                   : Yes

Text #2

ID                                       : 5

Format                                   : PGS

Muxing mode                              : zlib

Codec ID                                 : S_HDMV/PGS

Codec ID/Info                            : Picture based subtitle format used on BDs/HD-DVDs

Duration                                 : 1 h 29 min

Bit rate                                 : 22.8 kb/s

Count of elements                        : 1503

Stream size                              : 14.6 MiB (0%)

Title                                    : Eng BD-PGS-SDH

Language                                 : English

Default                                  : No

Forced                                   : No

Text #3

ID                                       : 6

Format                                   : PGS

Muxing mode                              : zlib

Codec ID                                 : S_HDMV/PGS

Codec ID/Info                            : Picture based subtitle format used on BDs/HD-DVDs

Duration                                 : 1 h 24 min

Bit rate                                 : 58.4 kb/s

Count of elements                        : 2272

Stream size                              : 35.2 MiB (1%)

Title                                    : Commentary

Language                                 : English

Default                                  : No

Forced                                   : No

Menu

00:00:00.000                             : en:The Kill and Akkadian

00:03:48.019                             : en:The Rise of Memnon

00:05:04.012                             : en:A Clan of Cutthroats

00:08:33.179                             : en:Three Against Memnon

00:11:34.444                             : en:Betrayed

00:15:59.542                             : en:Fire Ants

00:21:34.710                             : en:Gomorrah

00:27:40.158                             : en:A Forced Hand

00:29:49.496                             : en:On the Run

00:32:52.929                             : en:Mathayus’ Prisoner

00:39:11.766                             : en:Killer in the Storm

00:45:16.005                             : en:Blood of the Scorpion

00:51:00.516                             : en:A Battle with Balthazar

00:56:12.119                             : en:Visions of Death

01:03:42.110                             : en:The Invaders

01:06:50.632                             : en:A Simply Test

01:11:35.875                             : en:Mathayus Strikes

01:19:41.151                             : en:The Scorpion Sting

01:21:43.357                             : en:Hail to the King

01:24:42.411                             : en:End Titles

The Scorpion King 2: Rise of a Warrior (2008) 1080p 10bit Bluray x265 HEVC English DDP 5.1 ESub ~ TombDoc

Code:

Format                                   : Matroska

Format version                           : Version 4

File size                                : 3.33 GiB

Duration                                 : 1 h 48 min

Overall bit rate                         : 4 387 kb/s

Video

ID                                       : 1

Format                                   : HEVC

Format/Info                              : High Efficiency Video Coding

Format profile                           : Main [email protected]@Main

Codec ID                                 : V_MPEGH/ISO/HEVC

Duration                                 : 1 h 48 min

Bit rate                                 : 3 929 kb/s

Width                                    : 1 920 pixels

Height                                   : 1 080 pixels

Display aspect ratio                     : 16:9

Frame rate mode                          : Constant

Frame rate                               : 23.976 (24000/1001) FPS

Color space                              : YUV

Chroma subsampling                       : 4:2:0

Bit depth                                : 10 bits

Bits/(Pixel*Frame)                       : 0.079

Stream size                              : 2.98 GiB (90%)

Default                                  : Yes

Forced                                   : No

Audio

ID                                       : 2

Format                                   : E-AC-3

Format/Info                              : Enhanced AC-3

Commercial name                          : Dolby Digital Plus

Codec ID                                 : A_EAC3

Duration                                 : 1 h 48 min

Bit rate mode                            : Constant

Bit rate                                 : 448 kb/s

Channel(s)                               : 6 channels

Channel layout                           : L R C LFE Ls Rs

Sampling rate                            : 48.0 kHz

Frame rate                               : 31.250 FPS (1536 SPF)

Compression mode                         : Lossy

Stream size                              : 348 MiB (10%)

Title                                    : English DD+ 5.1 448Kbps ~ TombDoc

Language                                 : English

Service kind                             : Complete Main

Default                                  : Yes

Forced                                   : Yes

Text

ID                                       : 3

Format                                   : PGS

Muxing mode                              : zlib

Codec ID                                 : S_HDMV/PGS

Codec ID/Info                            : Picture based subtitle format used on BDs/HD-DVDs

Duration                                 : 1 h 44 min

Bit rate                                 : 29.5 kb/s

Count of elements                        : 2243

Stream size                              : 22.1 MiB (1%)

Title                                    : Eng BD-PGS-SDH

Language                                 : English

Default                                  : Yes

Forced                                   : Yes

Menu

00:00:00.000                             : en:Chapter 01

00:07:37.123                             : en:Chapter 02

00:13:52.081                             : en:Chapter 03

00:18:20.391                             : en:Chapter 04

00:26:36.762                             : en:Chapter 05

00:32:59.436                             : en:Chapter 06

00:38:12.624                             : en:Chapter 07

00:44:26.122                             : en:Chapter 08

00:47:33.392                             : en:Chapter 09

00:52:30.731                             : en:Chapter 10

00:56:58.206                             : en:Chapter 11

01:01:16.715                             : en:Chapter 12

01:07:40.390                             : en:Chapter 13

01:14:14.075                             : en:Chapter 14

01:20:02.548                             : en:Chapter 15

01:25:08.645                             : en:Chapter 16

01:29:11.888                             : en:Chapter 17

01:35:57.335                             : en:Chapter 18

01:41:55.109                             : en:Chapter 19

01:45:14.475                             : en:Chapter 20

The Scorpion King 3: Battle for Redemption (2012) 1080p 10bit Bluray x265 HEVC [Org BD DTS 5.1 Hindi + DD 5.1 English] MSubs ~ TombDoc

Code:

Format                                   : Matroska

Format version                           : Version 4

File size                                : 3.86 GiB

Duration                                 : 1 h 45 min

Overall bit rate                         : 5 252 kb/s

Video

ID                                       : 1

Format                                   : HEVC

Format/Info                              : High Efficiency Video Coding

Format profile                           : Main [email protected]@Main

Codec ID                                 : V_MPEGH/ISO/HEVC

Duration                                 : 1 h 45 min

Bit rate                                 : 3 995 kb/s

Width                                    : 1 920 pixels

Height                                   : 1 080 pixels

Display aspect ratio                     : 16:9

Frame rate mode                          : Constant

Frame rate                               : 23.976 (24000/1001) FPS

Color space                              : YUV

Chroma subsampling                       : 4:2:0

Bit depth                                : 10 bits

Bits/(Pixel*Frame)                       : 0.080

Stream size                              : 2.94 GiB (76%)

Default                                  : Yes

Forced                                   : No

Audio #1

ID                                       : 2

Format                                   : DTS

Format/Info                              : Digital Theater Systems

Codec ID                                 : A_DTS

Duration                                 : 1 h 45 min

Bit rate mode                            : Constant

Bit rate                                 : 768 kb/s

Channel(s)                               : 6 channels

Channel layout                           : C L R Ls Rs LFE

Sampling rate                            : 48.0 kHz

Frame rate                               : 93.750 FPS (512 SPF)

Bit depth                                : 24 bits

Compression mode                         : Lossy

Stream size                              : 578 MiB (15%)

Title                                    : Org BD DTS 5.1 768Kbps ~ TombDoc

Language                                 : Hindi

Default                                  : Yes

Forced                                   : Yes

Audio #2

ID                                       : 3

Format                                   : E-AC-3

Format/Info                              : Enhanced AC-3

Commercial name                          : Dolby Digital Plus

Codec ID                                 : A_EAC3

Duration                                 : 1 h 45 min

Bit rate mode                            : Constant

Bit rate                                 : 448 kb/s

Channel(s)                               : 6 channels

Channel layout                           : L R C LFE Ls Rs

Sampling rate                            : 48.0 kHz

Frame rate                               : 31.250 FPS (1536 SPF)

Compression mode                         : Lossy

Stream size                              : 337 MiB (9%)

Title                                    : DD+ 5.1 English

Language                                 : English

Service kind                             : Complete Main

Default                                  : No

Forced                                   : No

Text #1

ID                                       : 4

Format                                   : PGS

Muxing mode                              : zlib

Codec ID                                 : S_HDMV/PGS

Codec ID/Info                            : Picture based subtitle format used on BDs/HD-DVDs

Duration                                 : 1 h 43 min

Bit rate                                 : 20.9 kb/s

Count of elements                        : 1836

Stream size                              : 15.6 MiB (0%)

Title                                    : Hindi BD-PGS

Language                                 : Hindi

Default                                  : Yes

Forced                                   : Yes

Text #2

ID                                       : 5

Format                                   : PGS

Muxing mode                              : zlib

Codec ID                                 : S_HDMV/PGS

Codec ID/Info                            : Picture based subtitle format used on BDs/HD-DVDs

Duration                                 : 1 h 40 min

Bit rate                                 : 34.1 kb/s

Count of elements                        : 2462

Stream size                              : 24.6 MiB (1%)

Title                                    : Eng BD-PGS-SDH

Language                                 : English

Default                                  : No

Forced                                   : No

Text #3

ID                                       : 6

Format                                   : PGS

Muxing mode                              : zlib

Codec ID                                 : S_HDMV/PGS

Codec ID/Info                            : Picture based subtitle format used on BDs/HD-DVDs

Duration                                 : 1 h 43 min

Bit rate                                 : 71.3 kb/s

Count of elements                        : 3462

Stream size                              : 52.7 MiB (1%)

Title                                    : Commentary

Language                                 : English

Default                                  : No

Forced                                   : No

Menu

00:00:00.000                             : en:Chapter 01

00:09:51.591                             : en:Chapter 02

00:18:33.112                             : en:Chapter 03

00:26:54.571                             : en:Chapter 04

00:33:15.535                             : en:Chapter 05

00:44:20.491                             : en:Chapter 06

00:51:39.596                             : en:Chapter 07

00:58:43.019                             : en:Chapter 08

01:05:55.618                             : en:Chapter 09

01:16:04.393                             : en:Chapter 10

01:23:32.966                             : en:Chapter 11

01:36:57.895                             : en:Chapter 12

The Scorpion King 4: Quest for Power (2015) 1080p 10bit Bluray x265 HEVC English DDP 5.1 ESubs ~ TombDoc

Code:

Format                                   : Matroska

Format version                           : Version 4

File size                                : 3.27 GiB

Duration                                 : 1 h 44 min

Overall bit rate                         : 4 468 kb/s

Video

ID                                       : 1

Format                                   : HEVC

Format/Info                              : High Efficiency Video Coding

Format profile                           : Main [email protected]@Main

Codec ID                                 : V_MPEGH/ISO/HEVC

Duration                                 : 1 h 44 min

Bit rate                                 : 3 988 kb/s

Width                                    : 1 920 pixels

Height                                   : 1 080 pixels

Display aspect ratio                     : 16:9

Frame rate mode                          : Constant

Frame rate                               : 23.976 (24000/1001) FPS

Color space                              : YUV

Chroma subsampling                       : 4:2:0

Bit depth                                : 10 bits

Bits/(Pixel*Frame)                       : 0.080

Stream size                              : 2.92 GiB (89%)

Default                                  : Yes

Forced                                   : No

Audio

ID                                       : 2

Format                                   : E-AC-3

Format/Info                              : Enhanced AC-3

Commercial name                          : Dolby Digital Plus

Codec ID                                 : A_EAC3

Duration                                 : 1 h 44 min

Bit rate mode                            : Constant

Bit rate                                 : 448 kb/s

Channel(s)                               : 6 channels

Channel layout                           : L R C LFE Ls Rs

Sampling rate                            : 48.0 kHz

Frame rate                               : 31.250 FPS (1536 SPF)

Compression mode                         : Lossy

Stream size                              : 336 MiB (10%)

Title                                    : English DD+ 5.1 448Kbps ~ TombDoc

Language                                 : English

Service kind                             : Complete Main

Default                                  : Yes

Forced                                   : Yes

Text #1

ID                                       : 3

Format                                   : PGS

Muxing mode                              : zlib

Codec ID                                 : S_HDMV/PGS

Codec ID/Info                            : Picture based subtitle format used on BDs/HD-DVDs

Duration                                 : 1 h 41 min

Bit rate                                 : 34.3 kb/s

Count of elements                        : 2752

Stream size                              : 24.9 MiB (1%)

Title                                    : Eng BD-PGS-SDH

Language                                 : English

Default                                  : Yes

Forced                                   : Yes

Text #2

ID                                       : 4

Format                                   : PGS

Muxing mode                              : zlib

Codec ID                                 : S_HDMV/PGS

Codec ID/Info                            : Picture based subtitle format used on BDs/HD-DVDs

Duration                                 : 1 h 44 min

Bit rate                                 : 63.3 kb/s

Count of elements                        : 3995

Stream size                              : 47.4 MiB (1%)

Title                                    : Commentary

Language                                 : English

Default                                  : No

Forced                                   : No

Menu

00:00:00.000                             : en:Chapter 01

00:07:39.000                             : en:Chapter 02

00:10:13.154                             : en:Chapter 03

00:13:22.218                             : en:Chapter 04

00:21:03.888                             : en:Chapter 05

00:26:13.238                             : en:Chapter 06

00:29:55.585                             : en:Chapter 07

00:34:36.157                             : en:Chapter 08

00:40:55.244                             : en:Chapter 09

00:45:06.495                             : en:Chapter 10

00:52:01.994                             : en:Chapter 11

00:58:16.243                             : en:Chapter 12

01:05:12.992                             : en:Chapter 13

01:09:17.236                             : en:Chapter 14

01:14:57.535                             : en:Chapter 15

01:19:55.708                             : en:Chapter 16

01:25:27.289                             : en:Chapter 17

01:30:08.528                             : en:Chapter 18

01:35:47.575                             : en:Chapter 19

01:39:42.018                             : en:Chapter 20

The Scorpion King: Book of Souls (2018) 1080p 10bit Bluray x265 HEVC English DDP 5.1 ESub ~ TombDoc

Code:

Format                                   : Matroska

Format version                           : Version 4

File size                                : 3.16 GiB

Duration                                 : 1 h 41 min

Overall bit rate                         : 4 437 kb/s

Video

ID                                       : 1

Format                                   : HEVC

Format/Info                              : High Efficiency Video Coding

Format profile                           : Main [email protected]@Main

Codec ID                                 : V_MPEGH/ISO/HEVC

Duration                                 : 1 h 41 min

Bit rate                                 : 3 980 kb/s

Width                                    : 1 920 pixels

Height                                   : 1 080 pixels

Display aspect ratio                     : 16:9

Frame rate mode                          : Constant

Frame rate                               : 23.976 (24000/1001) FPS

Color space                              : YUV

Chroma subsampling                       : 4:2:0

Bit depth                                : 10 bits

Bits/(Pixel*Frame)                       : 0.080

Stream size                              : 2.83 GiB (90%)

Default                                  : Yes

Forced                                   : No

Audio

ID                                       : 2

Format                                   : E-AC-3

Format/Info                              : Enhanced AC-3

Commercial name                          : Dolby Digital Plus

Codec ID                                 : A_EAC3

Duration                                 : 1 h 41 min

Bit rate mode                            : Constant

Bit rate                                 : 448 kb/s

Channel(s)                               : 6 channels

Channel layout                           : L R C LFE Ls Rs

Sampling rate                            : 48.0 kHz

Frame rate                               : 31.250 FPS (1536 SPF)

Compression mode                         : Lossy

Stream size                              : 326 MiB (10%)

Title                                    : English DD+ 5.1 448Kbps ~ TombDoc

Language                                 : English

Service kind                             : Complete Main

Default                                  : Yes

Forced                                   : Yes

Text

ID                                       : 3

Format                                   : PGS

Muxing mode                              : zlib

Codec ID                                 : S_HDMV/PGS

Codec ID/Info                            : Picture based subtitle format used on BDs/HD-DVDs

Duration                                 : 1 h 36 min

Bit rate                                 : 23.3 kb/s

Count of elements                        : 1666

Stream size                              : 16.1 MiB (0%)

Title                                    : Eng BD-PGS-SDH

Language                                 : English

Default                                  : Yes

Forced                                   : Yes

Menu

00:00:00.000                             : en:Chapter 01

00:06:24.134                             : en:Chapter 02

00:13:16.796                             : en:Chapter 03

00:15:57.623                             : en:Chapter 04

00:17:34.303                             : en:Chapter 05

00:22:11.288                             : en:Chapter 06

00:27:51.211                             : en:Chapter 07

00:33:47.776                             : en:Chapter 08

00:39:04.676                             : en:Chapter 09

00:43:53.047                             : en:Chapter 10

00:49:46.108                             : en:Chapter 11

00:53:49.518                             : en:Chapter 12

01:00:51.648                             : en:Chapter 13

01:07:23.456                             : en:Chapter 14

01:12:03.152                             : en:Chapter 15

01:18:39.381                             : en:Chapter 16

01:21:26.715                             : en:Chapter 17

01:25:23.994                             : en:Chapter 18

01:30:36.514                             : en:Chapter 19

01:36:59.897                             : en:Chapter 20

Code:

Source:

-The Scorpion King 2002 PROPER BluRay 1080p DTS-X 7.1 VC-1 HYBRID REMUX-FraMeSToR

-The Scorpion King 2 Rise of a Warrior 2008 1080p EUR Blu-ray VC-1 DTS-HD MA 5.1-NOGROUP

-The Scorpion King 3 Battle for Redemption 2012 1080p EUR Blu-ray AVC DTS-HD MA 5.1-TRexHD

-The Scorpion King The Lost Throne 2015 1080p CEE Blu-ray AVC DTS HD MA 5.1-HDCLUB

-The Scorpion King: Book of Souls 2018 1080p BluRay AVC DTS-HD MA 5.1-PCH

Note: Part 2, 4, 5 Never Dubbed in Hindi..

EnjOyY the Quality…

The Scorpion King 5-Movie ColDownload Torrent Magnet

#Scorpion #King #5Movie #Col