The Saint 1997 BR EAC3 VFF EN Full Torrent Magnet Download

Download Torrent The Saint 1997 BR EAC3 VFF EN Movie Full in HD Result. Movie The Saint 1997 BR EAC3 VFF EN Torrent Download full. Movie The Saint 1997 BR EAC3 VFF EN torrent Magnet Download Full. The Saint 1997 BR EAC3 VFF EN Full Movie Torrent Download And Magnet Download For your PC And Mobiles. Latest Movie The Saint 1997 BR EAC3 VFF EN Download Link In Bottom.

Torrent And Magnet Links Below

______________________________________________________________________________________________________________
The Saint 1997
Bluray · 1080p x265 10bit · DD+ 5.1 VFF ENG
¯¯¯¯¯¯¯¯¯¯¯¯¯¯¯¯¯¯¯¯¯¯¯¯¯¯¯¯¯¯¯¯¯¯¯¯¯¯¯¯¯¯¯¯¯¯¯¯¯¯¯¯¯¯¯¯¯¯¯¯¯¯¯¯¯¯¯¯¯¯¯¯¯¯¯¯¯¯¯¯

Year : 1997

Country : United States

Original and English Title : The Saint

French Title : Le Saint

Director : Phillip Noyce
Music from : Graeme Revell

Actors : Val Kilmer, Elisabeth Shue, Rade Serbedzija, Valery Nikolaev, Henry Goodman, Alun Armstrong, Michael Byrne, Evguéni Lazarev

Irina Apeksimova, Lev Prygunov, Charlotte Cornwell

Genre : Spying, Romance, Action, Adventure, Sci-Fi, Thriller

Certificate : All public
Budget : 70 000 000 $ · Recipe : 169 463 304 $ · ratio : 242 %

Link : Allociné 2,1 /5 · IMDB 6,2 /10 · TMDB 61 % · SensCritique 4,7 /10 · Wiki · Bande Annonce

French Plot
Où l’on retrouve Simon Templar , Robin des Bois moderne, au surnom universellement celebre, le Saint , dans sa derniere aventure alors qu’il s’apprete a décrocher, ayant amasse suffisamment d’argent pour une retraite doree. Son objectif: Ivan Tretiak , l’homme d’affaires le plus influent et le plus crapuleux de ce nouvel eldorado du crime organise qu’est devenue Moscou .

Adaptation des aventures de : Simon Templar écrit par Leslie Charteris 1928


If you enjoy and wish to support, please stay in seeding

Technical Details
¯¯¯¯¯¯¯¯¯¯¯¯¯¯¯¯¯¯¯¯¯¯¯¯¯¯¯¯¯¯¯¯¯¯¯¯¯¯¯¯¯¯¯¯¯¯¯¯¯¯¯¯¯¯¯¯¯¯¯¯¯¯¯¯¯¯¯¯¯¯¯¯¯¯¯¯¯¯¯¯¯¯¯¯¯¯¯¯¯¯¯¯¯¯¯¯¯¯¯¯
Media
Matroska 3,88 Gio 1 h56 mn 4781 Kbps

Video
HEVC/H265 1920 x820 @23.976 [email protected]@Main 10 bits 3699 Kbps VerySlow qp26,65
Audio
True French 5.1 EAC3 448 Kbps 48KHz 16bits

English (OV) 5.1 EAC3 448 Kbps 48KHz 16bits

English Commentary by Phillip Noyce 2.0 EAC3 128 Kbps 48KHz 16bits

Subtitles
True French forced SRT
True French full SRT
True French forced PGS
True French full PGS
True French Commentary by Phillip Noyce PGS
English full PGS
English full SDH PGS
English Commentary by Phillip Noyce PGS
Chapters
International, True French, English

Screenshot

Origin
Bluray : AVC 1080p 35533 Kbps, VFF 5.1 AC3 640 Kbps, ENG 5.1 MLP-FBA 3788 Kbps [OLDHAM]

NFO
¯¯¯¯¯¯¯¯¯¯¯¯¯¯¯¯¯¯¯¯¯¯¯¯¯¯¯¯¯¯¯¯¯¯¯¯¯¯¯¯¯¯¯¯¯¯¯¯¯¯¯¯¯¯¯¯¯¯¯¯¯¯¯¯¯¯¯¯¯¯¯¯¯¯¯¯¯¯¯¯¯¯¯¯¯¯¯¯¯¯¯¯¯¯¯¯¯¯¯¯

General
Complete name : The Saint 1997 BR EAC3 VFF ENG 1080p x265 10Bits T0M.mkv

Format : Matroska
Format version : Version 4

File size : 3.88 GiB
Duration : 1 h 56 min

Overall bit rate : 4 781 kb/s

Movie name : Le Saint (The Saint) 1997 de Phillip Noyce avec Val Kilmer, Elisabeth Shue, Rade Serbedzija, Valery Nikolaev, Henry Goodman, Alun Armstrong, Michael Byrne, Evguéni Lazarev, Irina Apeksimova, Lev Prygunov. (allocine=11804,imdb=tt0120053,tmdb=10003) T0M
Encoded date : UTC 2021-06-07 18:36:23

Writing application : mkvmerge v51.0.0 (‘I Wish’) 64-bit

Writing library : libebml v1.4.0 + libmatroska v1.6.2

Cover : Yes

Attachments : Cover.jpg

Video
ID : 1

Format : HEVC
Format/Info : High Efficiency Video Coding

Format profile : Main [email protected]@Main

Codec ID : V_MPEGH/ISO/HEVC

Duration : 1 h 56 min

Bit rate : 3 699 kb/s

Width : 1 920 pixels

Height : 820 pixels

Display aspect ratio : 2.35:1

Frame rate mode : Constant

Frame rate : 23.976 (24000/1001) FPS

Color space : YUV

Chroma subsampling : 4:2:0

Bit depth : 10 bits

Bits/(Pixel*Frame) : 0.098

Stream size : 3.00 GiB (77%)

Title : Video HEVC 1920×820 (2.35:1) @23.976 x265 [email protected]@Main 10bits 3700kbps 2pass veryslow 3453mn qp26,65
Writing library : x265 3.2.1+1-b5c86a64bbbe:[Windows][GCC 9.2.0][64 bit] 10bit

Encoding settings : cpuid=1111039 / frame-threads=3 / numa-pools=8 / wpp / no-pmode / no-pme / no-psnr / no-ssim / log-level=2 / input-csp=1 / input-res=1920×820 / interlace=0 / total-frames=0 / level-idc=0 / high-tier=1 / uhd-bd=0 / ref=5 / no-allow-non-conformance / no-repeat-headers / annexb / no-aud / no-hrd / info / hash=0 / no-temporal-layers / open-gop / min-keyint=24 / keyint=240 / gop-lookahead=0 / bframes=8 / b-adapt=2 / b-pyramid / bframe-bias=0 / rc-lookahead=120 / lookahead-slices=0 / scenecut=40 / radl=0 / no-splice / no-intra-refresh / ctu=64 / min-cu-size=8 / rect / amp / max-tu-size=32 / tu-inter-depth=3 / tu-intra-depth=3 / limit-tu=0 / rdoq-level=2 / dynamic-rd=0.00 / no-ssim-rd / signhide / no-tskip / nr-intra=0 / nr-inter=0 / no-constrained-intra / strong-intra-smoothing / max-merge=5 / limit-refs=0 / no-limit-modes / me=3 / subme=4 / merange=57 / temporal-mvp / no-hme / weightp / weightb / no-analyze-src-pics / deblock=0:0 / sao / no-sao-non-deblock / rd=6 / selective-sao=4 / no-early-skip / rskip / no-fast-intra / no-tskip-fast / no-cu-lossless / b-intra / no-splitrd-skip / rdpenalty=0 / psy-rd=2.00 / psy-rdoq=1.00 / no-rd-refine / no-lossless / cbqpoffs=0 / crqpoffs=0 / rc=abr / bitrate=3700 / qcomp=0.60 / qpstep=4 / stats-write=0 / stats-Read=2 / cplxblur=20.0 / qblur=0.5 / ipratio=1.40 / pbratio=1.30 / aq-mode=2 / aq-strength=1.00 / cutree / zone-count=0 / no-strict-cbr / qg-size=32 / no-rc-grain / qpmax=69 / qpmin=0 / no-const-vbv / sar=1 / overscan=0 / videoformat=5 / range=0 / colorprim=1 / transfer=1 / colormatrix=1 / chromaloc=0 / display-window=0 / cll=0,0 / min-luma=0 / max-luma=1023 / log2-max-poc-lsb=8 / vui-timing-info / vui-hrd-info / slices=1 / no-opt-qp-pps / no-opt-ref-list-length-pps / no-multi-pass-opt-rps / scenecut-bias=0.05 / no-opt-cu-delta-qp / no-aq-motion / no-hdr / no-hdr-opt / no-dhdr10-opt / no-idr-recovery-sei / analysis-reuse-level=5 / scale-factor=0 / refine-intra=0 / refine-inter=0 / refine-mv=1 / refine-ctu-distortion=0 / no-limit-sao / ctu-info=0 / no-lowpass-dct / refine-analysis-type=0 / copy-pic=1 / max-ausize-factor=1.0 / no-dynamic-refine / no-single-sei / no-hevc-aq / no-svt / no-field / qp-adaptation-range=1.00

Default : Yes

Forced : No

Color range : Limited

Color primaries : BT.709

Transfer characteristics : BT.709

Matrix coefficients : BT.709

Audio #1
ID : 2

Format : E-AC-3
Format/Info : Enhanced AC-3

Commercial name : Dolby Digital Plus

Codec ID : A_EAC3

Duration : 1 h 56 min

Bit rate mode : Constant

Bit rate : 448 kb/s

Channel(s) : 6 channels

Channel layout : L R C LFE Ls Rs

Sampling rate : 48.0 kHz

Frame rate : 31.250 FPS (1536 SPF)

Compression mode : Lossy

Stream size : 372 MiB (9%)

Title : Français 5.1 EAC3 448kbps 48khz 16bits
Language : French
Service kind : Complete Main

Default : Yes

Forced : No

Audio #2
ID : 3

Format : E-AC-3
Format/Info : Enhanced AC-3

Commercial name : Dolby Digital Plus

Codec ID : A_EAC3

Duration : 1 h 56 min

Bit rate mode : Constant

Bit rate : 448 kb/s

Channel(s) : 6 channels

Channel layout : L R C LFE Ls Rs

Sampling rate : 48.0 kHz

Frame rate : 31.250 FPS (1536 SPF)

Compression mode : Lossy

Stream size : 372 MiB (9%)

Title : English 5.1 EAC3 448kbps 48khz 16bits
Language : English
Service kind : Complete Main

Default : No

Forced : No

Audio #3
ID : 4

Format : E-AC-3
Format/Info : Enhanced AC-3

Commercial name : Dolby Digital Plus

Codec ID : A_EAC3

Duration : 1 h 56 min

Bit rate mode : Constant

Bit rate : 128 kb/s

Channel(s) : 2 channels

Channel layout : L R

Sampling rate : 48.0 kHz

Frame rate : 31.250 FPS (1536 SPF)

Compression mode : Lossy

Stream size : 106 MiB (3%)

Title : English comment by Phillip Noyce 2.0 EAC3 128kbps 48khz 16bits
Language : English
Service kind : Complete Main

Default : No

Forced : No

Text #1
ID : 5

Format : UTF-8
Codec ID : S_TEXT/UTF8

Codec ID/Info : UTF-8 Plain Text

Duration : 1 h 56 min

Bit rate : 2 b/s

Count of elements : 61

Stream size : 2.51 KiB (0%)

Title : Français forcé (Passages)
Language : French
Default : Yes

Forced : Yes

Text #2
ID : 6

Format : UTF-8
Codec ID : S_TEXT/UTF8

Codec ID/Info : UTF-8 Plain Text

Duration : 1 h 56 min

Bit rate : 47 b/s

Count of elements : 1047

Stream size : 40.1 KiB (0%)

Title : Français complet (Tous le film)
Language : French
Default : No

Forced : No

Text #3
ID : 7

Format : PGS
Muxing mode : zlib

Codec ID : S_HDMV/PGS

Codec ID/Info : Picture based subtitle format used on BDs/HD-DVDs

Duration : 1 h 55 min

Bit rate : 436 b/s

Count of elements : 46

Stream size : 369 KiB (0%)

Title : Français forcé (Passages) PGS
Language : French
Default : No

Forced : Yes

Text #4
ID : 8

Format : PGS
Muxing mode : zlib

Codec ID : S_HDMV/PGS

Codec ID/Info : Picture based subtitle format used on BDs/HD-DVDs

Duration : 1 h 55 min

Bit rate : 27.5 kb/s

Count of elements : 2092

Stream size : 22.7 MiB (1%)

Title : Français complet (Tous le film) PGS
Language : French
Default : No

Forced : No

Text #5
ID : 9

Format : PGS
Muxing mode : zlib

Codec ID : S_HDMV/PGS

Codec ID/Info : Picture based subtitle format used on BDs/HD-DVDs

Duration : 1 h 55 min

Bit rate : 54.1 kb/s

Count of elements : 3182

Stream size : 44.8 MiB (1%)

Title : Français commentaire de Phillip Noyce PGS
Language : French
Default : No

Forced : No

Text #6
ID : 10

Format : PGS
Muxing mode : zlib

Codec ID : S_HDMV/PGS

Codec ID/Info : Picture based subtitle format used on BDs/HD-DVDs

Duration : 1 h 50 min

Bit rate : 27.8 kb/s

Count of elements : 1930

Stream size : 21.9 MiB (1%)

Title : English full (All the movie) PGS
Language : English
Default : No

Forced : No

Text #7
ID : 11

Format : PGS
Muxing mode : zlib

Codec ID : S_HDMV/PGS

Codec ID/Info : Picture based subtitle format used on BDs/HD-DVDs

Duration : 1 h 53 min

Bit rate : 31.7 kb/s

Count of elements : 2316

Stream size : 25.8 MiB (1%)

Title : English full SDH PGS
Language : English
Default : No

Forced : No

Text #8
ID : 12

Format : PGS
Muxing mode : zlib

Codec ID : S_HDMV/PGS

Codec ID/Info : Picture based subtitle format used on BDs/HD-DVDs

Duration : 1 h 51 min

Bit rate : 57.6 kb/s

Count of elements : 3184

Stream size : 45.9 MiB (1%)

Title : English comment by Phillip Noyce PGS
Language : English
Default : No

Forced : No

Menu
00:00:00.000 : :01 – 00:00:00 – fr:Simon le magicien – en:Simon the Magician

00:07:23.526 : :02 – 00:07:23 – fr:Amis, compatriotes, russes – en:Friends, Countrymen, Russians

00:11:53.129 : :03 – 00:11:53 – fr:La puce électronique – en:The Microchip

00:16:27.528 : :04 – 00:16:27 – fr:Martin De Porres – en:Martin De Porres

00:21:14.273 : :05 – 00:21:14 – fr:Bruno Hautenfaust – en:Bruno Hautenfaust

00:27:32.067 : :06 – 00:27:32 – fr:Fusion froide, des salamalecs – en:Cold Fusion Mumbo Jumbo

00:34:08.921 : :07 – 00:34:08 – fr:Thomas More – en:Thomas More

00:39:29.492 : :08 – 00:39:29 – fr:Quel est votre nom ? – en:What’s Your Name ?

00:44:15.736 : :09 – 00:44:15 – fr:Un ange – en:An Angel

00:49:20.499 : :10 – 00:49:20 – fr:L’araignée et la mouche – en:The Spider and the Fly

00:55:32.954 : :11 – 00:55:32 – fr:Dédoublement – en:Double Take

01:00:06.978 : :12 – 01:00:06 – fr:Tu m’as trouvé – en:You Found Me

01:05:56.243 : :13 – 01:05:56 – fr:Marcher sur des œufs – en:On Thin Ice

01:11:29.034 : :14 – 01:11:29 – fr:L’hospitalité russe – en:Russian Hospitality

01:17:33.982 : :15 – 01:17:33 – fr:Plus ou moins – en:Plus or Minus

01:21:49.905 : :16 – 01:21:49 – fr:Une diversion – en:A Diversion

01:25:53.690 : :17 – 01:25:53 – fr:Mon saint personnel – en:My Personal Saint

01:31:43.289 : :18 – 01:31:43 – fr:”Oh, gens de peu de foi” – en:”Oh, Ye of Little Faith”

01:38:15.055 : :19 – 01:38:15 – fr:Révolution sur la place Rouge – en:Revelation in Red Square

01:42:03.867 : :20 – 01:42:03 – fr:On se connais ? – en:I Know You

01:50:45.055 : :21 – 01:50:45 – fr:Son plus grand fan – en:Her Biggest Fan

The Saint 1997 BR EAC3 VFF ENDownload Torrent Magnet

#Saint #EAC3 #VFF