The.Punisher.2004.EXTENDED.CU Full Torrent Magnet Download

Download Torrent The.Punisher.2004.EXTENDED.CU Movie Full in HD Result. Movie The.Punisher.2004.EXTENDED.CU Torrent Download full. Movie The.Punisher.2004.EXTENDED.CU torrent Magnet Download Full. The.Punisher.2004.EXTENDED.CU Full Movie Torrent Download And Magnet Download For your PC And Mobiles. Latest Movie The.Punisher.2004.EXTENDED.CU Download Link In Bottom.

Torrent And Magnet Links Below

The.Punisher.2004.EXTENDED.CUT.BRRip.XviD.B4ND1T69

Director: Jonathan Hensleigh

Writers: Jonathan Hensleigh, Michael France

Stars: Thomas Jane, John Travolta, Samantha Mathis

Plot/Story:

An undercover FBI agent becomes a vigilante and sets out to unleash his wrath upon the corrupt businessman who slaughtered his entire family at a reunion.

General

Complete name : The.Punisher.2004.EXTENDED.CUT.BRRip.XviD.B4ND1T69.avi

Format : AVI

Format/Info : Audio Video Interleave

File size : 1.17 GiB

Duration : 2 h 19 min

Overall bit rate : 1 210 kb/s

Subtitles : Yes…Included

Video

ID : 0

Format : MPEG-4 Visual

Format profile : Advanced [email protected]
Format settings, BVOP : 2

Format settings, QPel : No

Format settings, GMC : No warppoints

Format settings, Matrix : Default (H.263)

Codec ID : XVID

Codec ID/Hint : XviD

Duration : 2 h 19 min

Bit rate : 1 069 kb/s

Width : 720 pixels

Height : 304 pixels

Display aspect ratio : 2.35:1

Frame rate : 23.976 (24000/1001) FPS

Color space : YUV

Chroma subsampling : 4:2:0

Bit depth : 8 bits

Scan type : Progressive

Compression mode : Lossy

Bits/(Pixel*Frame) : 0.204

Stream size : 1.04 GiB (88%)

Writing library : XviD 64

Audio

ID : 1

Format : MPEG Audio

Format version : Version 1

Format profile : Layer 3

Codec ID : 55

Codec ID/Hint : MP3

Duration : 2 h 19 min

Bit rate mode : Constant

Bit rate : 128 kb/s

Channel(s) : 2 channels

Sampling rate : 48.0 kHz

Compression mode : Lossy

Stream size : 127 MiB (11%)

Alignment : Aligned on interleaves

Interleave, duration : 24 ms (0.58 video frame)

Screenshots:









Please Seed For As Long As Possible

Or At Least 1:1 Ratio…Thanks

Enjoy Peeps

The.Punisher.2004.EXTENDED.CUDownload Torrent Magnet

#ThePunisher2004EXTENDEDCU