The Phantom Tollbooth 1970 DV Full Torrent Magnet Download

Download Torrent The Phantom Tollbooth 1970 DV Movie Full in HD Result. Movie The Phantom Tollbooth 1970 DV Torrent Download full. Movie The Phantom Tollbooth 1970 DV torrent Magnet Download Full. The Phantom Tollbooth 1970 DV Full Movie Torrent Download And Magnet Download For your PC And Mobiles. Latest Movie The Phantom Tollbooth 1970 DV Download Link In Bottom.

Torrent And Magnet Links Below

The Phantom Tollbooth 1970 DVDRip x264 AC3-iCMAL [TGx]

Parental Guide:

Certification
Australia:G Canada:G (Quebec) Iceland:L United Kingdom:U United States:G

Movie information:

Milo is a boy who is bored with life. One day he comes home to find a toll booth in his room. Having nothing better to do, he gets in his toy car and drives through – only to emerge in a world full of adventure.

Directors: Chuck Jones, Abe Levitow
Writers: Chuck Jones (screenplay), Sam Rosen
Stars: Butch Patrick, Hans Conried, Mel Blanc

Storyline:

Milo is a boy who is bored with life. One day he comes home to find a toll booth in his room. Having nothing better to do, he gets in his toy car and drives through – only to emerge in a world full of adventure.

Quote:

DownloadsThe Phantom Tollbooth 1970 DVDRip x264 AC3-iCMAL.mkv

Format : Matroska

Format version : Version 4

File size : 737 MiB

Duration : 1 h 29 min

Overall bit rate : 1 156 kb/s

Movie name : The Phantom Tollbooth 1970 DVDRip x264 AC3-iCMAL

Encoded date : UTC 2021-02-17 09:42:48 / UTC 2021-02-17T08:50:32Z

Writing application : mkvmerge v10.0.0 (‘To Drown In You’) 64bit

Writing library : libebml v1.3.4 + libmatroska v1.4.5 / Lavf57.7.2

Video

ID : 1

Format : AVC

Format/Info : Advanced Video Codec

Format profile : [email protected]
Format settings : CABAC / 4 Ref Frames

Format settings, CABAC : Yes

Format settings, Reference frames : 4 frames

Codec ID : V_MPEG4/ISO/AVC

Duration : 1 h 29 min

Bit rate : 1 026 kb/s

Width : 720 pixels

Height : 480 pixels

Display aspect ratio : 16:9

Frame rate mode : Constant

Frame rate : 23.976 (24000/1001) FPS

Color space : YUV

Chroma subsampling : 4:2:0

Bit depth : 8 bits

Scan type : Progressive

Bits/(Pixel*Frame) : 0.124

Stream size : 654 MiB (89%)

Title : Encoding iCMAL

Writing library : x264 core 148 r2708 86b7198

Encoding settings : cabac=1 / ref=1 / deblock=1:0:0 / analyse=0x1:0x111 / me=hex / subme=2 / psy=1 / psy_rd=1.00:0.00 / mixed_ref=0 / me_range=16 / chroma_me=1 / trellis=0 / 8x8dct=0 / cqm=0 / deadzone=21,11 / fast_pskip=1 / chroma_qp_offset=0 / threads=6 / lookahead_threads=2 / sliced_threads=0 / nr=0 / decimate=1 / interlaced=0 / bluray_compat=0 / constrained_intra=0 / bframes=3 / b_pyramid=2 / b_adapt=1 / b_bias=0 / direct=1 / weightb=1 / open_gop=0 / weightp=1 / keyint=240 / keyint_min=24 / scenecut=40 / intra_refresh=0 / rc_lookahead=10 / rc=crf / mbtree=1 / crf=22.0 / qcomp=0.60 / qpmin=0 / qpmax=69 / qpstep=4 / vbv_maxrate=14000 / vbv_bufsize=14000 / crf_max=0.0 / nal_hrd=none / filler=0 / ip_ratio=1.40 / aq=1:1.00

Default : Yes

Forced : No

Color range : Limited

Color primaries : BT.601 NTSC

Transfer characteristics : BT.709

Matrix coefficients : BT.601

Audio

ID : 2

Format : AC-3

Format/Info : Audio Coding 3

Commercial name : Dolby Digital

Codec ID : A_AC3

Duration : 1 h 29 min

Bit rate mode : Constant

Bit rate : 128 kb/s

Channel(s) : 2 channels

Channel layout : L R

Sampling rate : 48.0 kHz

Frame rate : 31.250 FPS (1536 SPF)

Compression mode : Lossy

Delay relative to video : -5 ms

Stream size : 81.5 MiB (11%)

Title : Encoding iCMAL

Language : English

Service kind : Complete Main

Default : Yes

Forced : No

Menu

00:00:00.000 : :Chapter 1

00:04:42.741 : :Chapter 2

00:06:56.833 : :Chapter 3

00:10:01.392 : :Chapter 4

00:12:10.730 : :Chapter 5

00:17:54.073 : :Chapter 6

00:19:50.815 : :Chapter 7

00:22:16.335 : :Chapter 8

00:26:34.093 : :Chapter 9

00:30:30.287 : :Chapter 10

00:34:13.009 : :Chapter 11

00:36:05.163 : :Chapter 12

00:43:10.588 : :Chapter 13

00:47:16.876 : :Chapter 14

00:50:39.036 : :Chapter 15

00:54:21.633 : :Chapter 16

00:56:37.394 : :Chapter 17

01:02:52.435 : :Chapter 18

01:06:28.985 : :Chapter 19

01:08:56.132 : :Chapter 20

01:11:37.376 : :Chapter 21

01:14:31.342 : :Chapter 22

01:16:11.484 : :Chapter 23

01:18:55.189 : :Chapter 24

01:21:04.109 : :Chapter 25

01:23:08.066 : :Chapter 26

01:25:45.599 : :Chapter 27

01:27:30.203 : :Chapter 28

The Phantom Tollbooth 1970 DVDownload Torrent Magnet

#Phantom #Tollbooth