The.Phantom.1996.BRRip.XviD.B Full Torrent Magnet Download

Download Torrent The.Phantom.1996.BRRip.XviD.B Movie Full in HD Result. Movie The.Phantom.1996.BRRip.XviD.B Torrent Download full. Movie The.Phantom.1996.BRRip.XviD.B torrent Magnet Download Full. The.Phantom.1996.BRRip.XviD.B Full Movie Torrent Download And Magnet Download For your PC And Mobiles. Latest Movie The.Phantom.1996.BRRip.XviD.B Download Link In Bottom.

Torrent And Magnet Links Below

The.Phantom.1996.BRRip.XviD.B4ND1T69

Director: Simon Wincer

Writers: Lee Falk (characters), Jeffrey Boam

Stars: Billy Zane, Kristy Swanson, Treat Williams

Plot/Story:

The Phantom, descendent of a line of African superheroes, travels to New York City to thwart a wealthy criminal genius from obtaining three magic skulls which would give him the secret to ultimate power.

General

Complete name : The.Phantom.1996.BRRip.XviD.B4ND1T69.avi

Format : AVI

Format/Info : Audio Video Interleave

File size : 1.20 GiB

Duration : 1 h 40 min

Overall bit rate : 1 714 kb/s

Subtitles : Yes…Included(HI)

Video

ID : 0

Format : MPEG-4 Visual

Format profile : Advanced [email protected]
Format settings, BVOP : 2

Format settings, QPel : No

Format settings, GMC : No warppoints

Format settings, Matrix : Default (H.263)

Codec ID : XVID

Codec ID/Hint : XviD

Duration : 1 h 40 min

Bit rate : 1 573 kb/s

Width : 720 pixels

Height : 304 pixels

Display aspect ratio : 2.35:1

Frame rate : 24.390 FPS

Color space : YUV

Chroma subsampling : 4:2:0

Bit depth : 8 bits

Scan type : Progressive

Compression mode : Lossy

Bits/(Pixel*Frame) : 0.295

Stream size : 1.10 GiB (92%)

Writing library : XviD 64

Audio

ID : 1

Format : MPEG Audio

Format version : Version 1

Format profile : Layer 3

Codec ID : 55

Codec ID/Hint : MP3

Duration : 1 h 40 min

Bit rate mode : Constant

Bit rate : 128 kb/s

Channel(s) : 2 channels

Sampling rate : 48.0 kHz

Compression mode : Lossy

Stream size : 91.8 MiB (7%)

Alignment : Aligned on interleaves

Interleave, duration : 24 ms (0.59 video frame)

Screenshots:









Please Seed For As Long As Possible

Or At Least 1:1 Ratio…Thanks

Enjoy Peeps

The.Phantom.1996.BRRip.XviD.BDownload Torrent Magnet

#ThePhantom1996BRRipXviDB