The.Noite.com.Danilo.Gentili. Full Torrent Magnet Download

Download Torrent The.Noite.com.Danilo.Gentili. Movie Full in HD Result. Movie The.Noite.com.Danilo.Gentili. Torrent Download full. Movie The.Noite.com.Danilo.Gentili. torrent Magnet Download Full. The.Noite.com.Danilo.Gentili. Full Movie Torrent Download And Magnet Download For your PC And Mobiles. Latest Movie The.Noite.com.Danilo.Gentili. Download Link In Bottom.

Torrent And Magnet Links Below

Jackeline Petkovic e Bruno Araújo

Entrevista com a apresentadora Jackeline Martins Petkovic e o cantor Bruno Araújo, que encerra o programa com “Guardião Meu”.


General
Format: MPEG-4
Format profile: Base Media
Codec ID: isom (isom/iso2/avc1/mp41)
File size: 459 MiB
Duration: 47 min 59 s
Overall bit rate: 1 337 kb/s
Writing application: Lavf58.45.100

Video
ID: 1
Format: AVC
Format/Info: Advanced Video Codec
Format profile: [email protected]
Format settings: CABAC / 9 Ref Frames
Format settings, CABAC: Yes
Format settings, Reference frames: 9 frames
Codec ID: avc1
Codec ID/Info: Advanced Video Coding
Duration: 47 min 59 s
Bit rate: 1 200 kb/s
Width: 1 280 pixels
Height: 720 pixels
Display aspect ratio: 16:9
Frame rate mode: Variable
Frame rate: 29.970 FPS
Minimum frame rate: 15.000 FPS
Maximum frame rate: 30.000 FPS
Color space: YUV
Chroma subsampling: 4:2:0
Bit depth: 8 bits
Scan type: Progressive
Bits/(Pixel*Frame): 0.043
Stream size: 412 MiB (90%)
Writing library: x264 core 160 r3011 cde9a93
Encoding settings: cabac=1 / ref=9 / deblock=1:0:0 / analyse=0x3:0x133 / me=umh / subme=10 / psy=1 / psy_rd=1.00:0.00 / mixed_ref=1 / me_range=24 / chroma_me=1 / trellis=2 / 8x8dct=1 / cqm=0 / deadzone=21,11 / fast_pskip=1 / chroma_qp_offset=-2 / threads=6 / lookahead_threads=1 / sliced_threads=0 / nr=0 / decimate=1 / interlaced=0 / bluray_compat=0 / constrained_intra=0 / bframes=8 / b_pyramid=2 / b_adapt=2 / b_bias=0 / direct=3 / weightb=1 / open_gop=0 / weightp=2 / keyint=250 / keyint_min=25 / scenecut=40 / intra_refresh=0 / rc_lookahead=60 / rc=crf / mbtree=1 / crf=25.0 / qcomp=0.60 / qpmin=0 / qpmax=69 / qpstep=4 / ip_ratio=1.40 / aq=1:1.00
Codec configuration box: avcC

Audio
ID: 2
Format: AAC LC
Format/Info: Advanced Audio Codec Low Complexity
Codec ID: mp4a-40-2
Duration: 47 min 59 s
Bit rate mode: Constant
Bit rate: 129 kb/s
Channel(s): 2 channels
Channel layout: L R
Sampling rate: 48.0 kHz
Frame rate: 46.875 FPS (1024 SPF)
Compression mode: Lossy
Stream size: 44.1 MiB (10%)
Default: Yes
Alternate group: 1

The.Noite.com.Danilo.Gentili.Download Torrent Magnet

#TheNoitecomDaniloGentili