The.Mummy.Returns.2001.1080p. Full Torrent Magnet Download

Download Torrent The.Mummy.Returns.2001.1080p. Movie Full in HD Result. Movie The.Mummy.Returns.2001.1080p. Torrent Download full. Movie The.Mummy.Returns.2001.1080p. torrent Magnet Download Full. The.Mummy.Returns.2001.1080p. Full Movie Torrent Download And Magnet Download For your PC And Mobiles. Latest Movie The.Mummy.Returns.2001.1080p. Download Link In Bottom.

Torrent And Magnet Links Below









Code:

Format                     : Matroska

Format version              : Version 4

File size                   : 6.58 GiB

Duration                    : 2 h 9 min

Overall bit rate            : 7 268 kb/s

Movie name                  : The Mummy Returns 2001 (xxxpav69)

Encoded date                : UTC 2021-02-06 15:55:33

Writing application         : mkvmerge v53.0.0 (‘Fool’s Gold’) 64-bit

Writing library             : libebml v1.4.1 + libmatroska v1.6.2

Video
Format                      : HEVC

Format/Info                 : High Efficiency Video Coding

Format profile              : Main [email protected]@Main

Codec ID                    : V_MPEGH/ISO/HEVC

Duration                    : 2 h 9 min

Bit rate                    : 6 113 kb/s

Width                       : 1 920 pixels

Height                      : 816 pixels

Display aspect ratio        : 2.35:1

Frame rate mode             : Constant

Frame rate                  : 23.976 (24000/1001) FPS

Color space                 : YUV

Chroma subsampling          : 4:2:0

Bit depth                   : 10 bits

Bits/(Pixel*Frame)          : 0.163

Stream size                 : 5.53 GiB (84%)

Writing library             : x265M – 3.4+28-419182243:[Windows][GCC 10.2.0][64 bit] 10bit

Encoding settings           : cpuid=1111039 / frame-threads=4 / numa-pools=16 / wpp / no-pmode / no-pme / no-psnr / no-ssim / log-level=2 / input-csp=1 / input-res=1920×816 / interlace=0 / total-frames=186365 / level-idc=0 / high-tier=1 / uhd-bd=0 / ref=4 / no-allow-non-conformance / no-repeat-headers / annexb / no-aud / no-hrd / info / hash=0 / no-temporal-layers / open-gop / min-keyint=23 / keyint=250 / gop-lookahead=0 / bframes=4 / b-adapt=2 / b-pyramid / bframe-bias=0 / rc-lookahead=25 / lookahead-slices=4 / scenecut=40 / hist-scenecut=0 / radl=0 / no-splice / no-intra-refresh / ctu=64 / min-cu-size=8 / rect / no-amp / max-tu-size=32 / tu-inter-depth=1 / tu-intra-depth=1 / limit-tu=0 / rdoq-level=2 / dynamic-rd=0.00 / no-ssim-rd / signhide / no-tskip / nr-intra=0 / nr-inter=0 / no-constrained-intra / strong-intra-smoothing / max-merge=3 / limit-refs=3 / limit-modes / me=3 / subme=3 / merange=57 / temporal-mvp / no-frame-dup / no-hme / weightp / no-weightb / no-analyze-src-pics / deblock=-3:-3 / sao / no-sao-non-deblock / rd=4 / selective-sao=4 / no-early-skip / rskip / no-fast-intra / no-tskip-fast / no-cu-lossless / no-b-intra / no-splitrd-skip / rdpenalty=0 / psy-rd=2.00 / psy-rdoq=1.00 / no-rd-refine / no-lossless / cbqpoffs=0 / crqpoffs=0 / rc=crf / crf=18.0 / qcomp=0.60 / qpstep=4 / stats-write=0 / stats-read=0 / ipratio=1.40 / pbratio=1.30 / aq-mode=3 / aq-strength=1.00 / cutree / zone-count=0 / no-strict-cbr / qg-size=32 / no-rc-grain / qpmax=69 / qpmin=0 / no-const-vbv / sar=0 / overscan=0 / videoformat=5 / range=0 / colorprim=2 / transfer=2 / colormatrix=2 / chromaloc=0 / display-window=0 / cll=0,0 / min-luma=0 / max-luma=1023 / log2-max-poc-lsb=8 / vui-timing-info / vui-hrd-info / slices=1 / no-opt-qp-pps / no-opt-ref-list-length-pps / no-multi-pass-opt-rps / scenecut-bias=0.05 / hist-threshold=0.03 / no-opt-cu-delta-qp / no-aq-motion / no-hdr10 / no-hdr10-opt / no-dhdr10-opt / no-idr-recovery-sei / analysis-reuse-level=0 / analysis-save-reuse-level=0 / analysis-load-reuse-level=0 / scale-factor=0 / refine-intra=0 / refine-inter=0 / refine-mv=1 / refine-ctu-distortion=0 / no-limit-sao / ctu-info=0 / no-lowpass-dct / refine-analysis-type=0 / copy-pic=1 / max-ausize-factor=1.0 / no-dynamic-refine / no-single-sei / no-hevc-aq / no-svt / no-field / qp-adaptation-range=1.00 / no-scenecut-aware-qpconformance-window-offsets / right=0 / bottom=0 / decoder-max-rate=0 / no-vbv-live-multi-pass

Language                    : English

Default                     : Yes

Forced                      : No

Audio
Format                      : DTS

Format/Info                 : Digital Theater Systems

Codec ID                    : A_DTS

Duration                    : 2 h 9 min

Bit rate mode               : Constant

Bit rate                    : 1 152 kb/s

Channel(s)                  : 6 channels

Channel layout              : C L R Ls Rs LFE

Sampling rate               : 48.0 kHz

Frame rate                  : 93.750 FPS (512 SPF)

Bit depth                   : 24 bits

Compression mode            : Lossy

Stream size                 : 1.04 GiB (16%)

Title                       : DTS

Language                    : English

Default                     : Yes

Forced                      : No

Text
Format                      : UTF-8

Codec ID                    : S_TEXT/UTF8

Codec ID/Info               : UTF-8 Plain Text

Duration                    : 2 h 1 min

Bit rate                    : 30 b/s

Count of elements           : 803

Stream size                 : 27.2 KiB (0%)

Title                       : Full

Language                    : English

Default                     : Yes

Forced                      : No

Menu
00:00:00.000                : :1. Legend Of The Scorpion King

00:04:41.489                : :2. The Family O’connell

00:10:03.519                : :3. Visions Of The Past

00:13:33.395                : :4. The Bracelet Of Anubis

00:17:03.897                : :5. The Unholy Treasure

00:23:20.774                : :6. Alex’s New Bracelet

00:26:17.158                : :7. The Siege Of O’Connell Manor

00:35:25.248                : :8. Resurrection

00:42:01.685                : :9. The Soldier Mummies

00:46:51.725                : :10. Kidnapped

00:56:03.151                : :11. Izzy’s Magic Carpet

01:06:37.410                : :12. Visions Of Nefertiri

01:17:00.657                : :13. The Wall Of Water

01:27:33.665                : :14. The Pygmy Mummies

01:35:27.638                : :15. A Death In The Family

01:42:44.074                : :16. Face-To-Face

01:47:43.790                : :17. The Scorpion King

01:51:20.840                : :18. To Kill A Scorpion

01:53:26.382                : :19. Return To The Underworld

02:01:49.176                : :20. End Titles

The.Mummy.Returns.2001.1080p.Download Torrent Magnet

#TheMummyReturns20011080p