The.Master.2012.iTA.ENG.AC3.S Full Torrent Magnet Download

Download Torrent The.Master.2012.iTA.ENG.AC3.S Movie Full in HD Result. Movie The.Master.2012.iTA.ENG.AC3.S Torrent Download full. Movie The.Master.2012.iTA.ENG.AC3.S torrent Magnet Download Full. The.Master.2012.iTA.ENG.AC3.S Full Movie Torrent Download And Magnet Download For your PC And Mobiles. Latest Movie The.Master.2012.iTA.ENG.AC3.S Download Link In Bottom.

Torrent And Magnet Links Below


The Master


Data di uscita: 03 gennaio 2013

Genere: Drammatico

Anno: 2012

Regia: Paul Thomas Anderson

Attori: Joaquin Phoenix, Philip Seymour Hoffman, Amy Adams, Laura Dern, Rami Malek, Jesse Plemons, W. Earl Brown, Kevin O’Connor, Lena Endre, Ambyr Childers

Paese: USA

Durata: 137 min

Distribuzione: Lucky Red

Sceneggiatura: Paul Thomas Anderson

Fotografia: Mihai Malaimare Jr.

Montaggio: Leslie Jones, Peter McNulty

Musiche: Jonny Greenwood

Produzione: River Road


The Master, film scritto e diretto da Paul Thomas Anderson, racconta la storia di Freddie Quell (Joaquin Phoenix), un giovane soldato di ritorno dal fronte della Seconda Guerra Mondiale, con evidenti problemi al sistema nervoso, la schiena incurvata e una forte difficoltà a relazionarsi con il prossimo. Sebbene lo Stato gli offra la possibilità di curarsi, l’uomo ha delle manie in ambito sessuale di cui sembra impossibile liberarsi. A Freddie non resta altro che affogare i suoi problemi nell’alcol.

Un giorno, dopo l’ennesimo bicchierino, l’ex militare si trova imbarcato su una nave. A bordo conosce il padre spirituale Lancaster Dodd (Philip Seymour Hoffman), fondatore del movimento La Causa, che decide di provare a curare Freddie. Contro ogni previsione, il giovane si sente subito molto meglio e decide di diventare uno degli adepti del gruppo. Con loro passa moltissimo tempo, fino a diventare uno dei membri più importanti. Improvvisamente, sceglie di lasciare il suo maestro e allontanarsi dal movimento…




General

Unique ID                   : 254503601355399340855992977451250234709 (0xBF779C558E3ECA8A9E0C38D4BE3A3555)

Complete name               : The.Master.2012.iTA.ENG.AC3.SUB.iTA.ENG.BluRay.HEVC.1080p.x265.jeddak-MIRCrew.mkv

Format                      : Matroska

Format version              : Version 2

File size                   : 2.93 GiB

Duration                    : 2 h 17 min

Overall bit rate            : 3 055 kb/s

Movie name                  : The.Master.2012.iTA.ENG.AC3.SUB.iTA.ENG.BluRay.HEVC.1080p.x265.jeddak-MIRCrew

Encoded date                : UTC 2021-03-24 20:36:50

Writing application         : mkvmerge v5.6.0 (‘Kenya Kane’) built on May 27 2012 16:44:04

Writing library             : libebml v1.2.3 + libmatroska v1.3.0 / Lavf58.29.100

Video

ID                          : 1

Format                      : HEVC

Format/Info                 : High Efficiency Video Coding

Format profile              : [email protected]@Main

Codec ID                    : V_MPEGH/ISO/HEVC

Duration                    : 2 h 17 min

Bit rate                    : 2 098 kb/s

Width                       : 1 920 pixels

Height                      : 1 036 pixels

Display aspect ratio        : 1.85:1

Frame rate mode             : Constant

Frame rate                  : 24.000 FPS

Color space                 : YUV

Chroma subsampling          : 4:2:0

Bit depth                   : 8 bits

Bits/(Pixel*Frame)          : 0.044

Stream size                 : 2.02 GiB (69%)

Title                       : …::: jeddak MIRCrew :::…

Writing library             : x265 3.2.1+1-b5c86a64bbbe:[Linux][GCC 9.2.0][64 bit] 8bit+10bit+12bit

Encoding settings           : cpuid=1111039 / frame-threads=5 / wpp / no-pmode / no-pme / no-psnr / no-ssim / log-level=2 / input-csp=1 / input-res=1920×1036 / interlace=0 / total-frames=0 / level-idc=40 / high-tier=1 / uhd-bd=0 / ref=3 / no-allow-non-conformance / no-repeat-headers / annexb / no-aud / no-hrd / info / hash=0 / no-temporal-layers / open-gop / min-keyint=24 / keyint=240 / gop-lookahead=0 / bframes=4 / b-adapt=2 / b-pyramid / bframe-bias=0 / rc-lookahead=20 / lookahead-slices=6 / scenecut=40 / radl=0 / no-splice / no-intra-refresh / ctu=64 / min-cu-size=8 / no-rect / no-amp / max-tu-size=32 / tu-inter-depth=1 / tu-intra-depth=1 / limit-tu=0 / rdoq-level=0 / dynamic-rd=0.00 / no-ssim-rd / signhide / no-tskip / nr-intra=0 / nr-inter=0 / no-constrained-intra / strong-intra-smoothing / max-merge=3 / limit-refs=1 / no-limit-modes / me=1 / subme=2 / merange=57 / temporal-mvp / no-hme / weightp / no-weightb / no-analyze-src-pics / deblock=0:0 / sao / no-sao-non-deblock / rd=3 / selective-sao=4 / early-skip / rskip / no-fast-intra / no-tskip-fast / no-cu-lossless / b-intra / no-splitrd-skip / rdpenalty=0 / psy-rd=2.00 / psy-rdoq=0.00 / no-rd-refine / no-lossless / cbqpoffs=0 / crqpoffs=0 / rc=abr / bitrate=2200 / qcomp=0.60 / qpstep=4 / stats-write=0 / stats-read=0 / ipratio=1.40 / pbratio=1.30 / aq-mode=2 / aq-strength=1.00 / cutree / zone-count=0 / no-strict-cbr / qg-size=32 / no-rc-grain / qpmax=69 / qpmin=0 / no-const-vbv / sar=1 / overscan=0 / videoformat=5 / range=0 / colorprim=1 / transfer=1 / colormatrix=1 / chromaloc=0 / display-window=0 / cll=0,0 / min-luma=0 / max-luma=255 / log2-max-poc-lsb=8 / vui-timing-info / vui-hrd-info / slices=1 / no-opt-qp-pps / no-opt-ref-list-length-pps / no-multi-pass-opt-rps / scenecut-bias=0.05 / no-opt-cu-delta-qp / no-aq-motion / no-hdr / no-hdr-opt / no-dhdr10-opt / no-idr-recovery-sei / analysis-reuse-level=5 / scale-factor=0 / refine-intra=0 / refine-inter=0 / refine-mv=1 / refine-ctu-distortion=0 / no-limit-sao / ctu-info=0 / no-lowpass-dct / refine-analysis-type=0 / copy-pic=1 / max-ausize-factor=1.0 / no-dynamic-refine / no-single-sei / no-hevc-aq / no-svt / no-field / qp-adaptation-range=1.00

Default                     : Yes

Forced                      : No

Color range                 : Limited

Color primaries             : BT.709

Transfer characteristics    : BT.709

Matrix coefficients         : BT.709

Duration_Source             : General_Duration

Audio #1

ID                          : 2

Format                      : AC-3

Format/Info                 : Audio Coding 3

Commercial name             : Dolby Digital

Codec ID                    : A_AC3

Duration                    : 2 h 17 min

Bit rate mode               : Constant

Bit rate                    : 448 kb/s

Channel(s)                  : 6 channels

Channel layout              : L R C LFE Ls Rs

Sampling rate               : 48.0 kHz

Frame rate                  : 31.250 FPS (1536 SPF)

Compression mode            : Lossy

Delay relative to video     : -5 ms

Stream size                 : 441 MiB (15%)

Title                       : iTA AC3 5.1

Language                    : Italian

Service kind                : Complete Main

Default                     : Yes

Forced                      : No

Audio #2

ID                          : 3

Format                      : AC-3

Format/Info                 : Audio Coding 3

Commercial name             : Dolby Digital

Codec ID                    : A_AC3

Duration                    : 2 h 17 min

Bit rate mode               : Constant

Bit rate                    : 448 kb/s

Channel(s)                  : 6 channels

Channel layout              : L R C LFE Ls Rs

Sampling rate               : 48.0 kHz

Frame rate                  : 31.250 FPS (1536 SPF)

Compression mode            : Lossy

Delay relative to video     : -5 ms

Stream size                 : 441 MiB (15%)

Title                       : ENG AC3 5.1

Language                    : English

Service kind                : Complete Main

Default                     : No

Forced                      : No

Text #1

ID                          : 4

Format                      : PGS

Muxing mode                 : zlib

Codec ID                    : S_HDMV/PGS

Codec ID/Info               : Picture based subtitle format used on BDs/HD-DVDs

Duration                    : 2 h 17 min

Title                       : iTA NON UDENTI

Language                    : Italian

Default                     : No

Forced                      : No

Text #2

ID                          : 5

Format                      : PGS

Muxing mode                 : zlib

Codec ID                    : S_HDMV/PGS

Codec ID/Info               : Picture based subtitle format used on BDs/HD-DVDs

Duration                    : 2 h 10 min

Title                       : iTA REGULAR

Language                    : Italian

Default                     : No

Forced                      : No

Text #3

ID                          : 6

Format                      : UTF-8

Codec ID                    : S_TEXT/UTF8

Codec ID/Info               : UTF-8 Plain Text

Title                       : ENG REGULAR

Language                    : English

Default                     : No

Forced                      : No

Menu

00:00:00.000                : :Capitolo 01

00:09:18.542                : :Capitolo 02

00:25:46.792                : :Capitolo 03

00:34:25.167                : :Capitolo 04

00:43:44.375                : :Capitolo 05

00:54:39.000                : :Capitolo 06

01:04:41.833                : :Capitolo 07

01:19:43.333                : :Capitolo 08

01:32:02.042                : :Capitolo 09

01:43:16.458                : :Capitolo 10

01:55:25.792                : :Capitolo 11

02:10:54.750                : :Capitolo 12

The.Master.2012.iTA.ENG.AC3.SDownload Torrent Magnet

#TheMaster2012iTAENGAC3S