The Lost Boys (1987) (2160p B Full Torrent Magnet Download

Download Torrent The Lost Boys (1987) (2160p B Movie Full in HD Result. Movie The Lost Boys (1987) (2160p B Torrent Download full. Movie The Lost Boys (1987) (2160p B torrent Magnet Download Full. The Lost Boys (1987) (2160p B Full Movie Torrent Download And Magnet Download For your PC And Mobiles. Latest Movie The Lost Boys (1987) (2160p B Download Link In Bottom.

Torrent And Magnet Links Below

Media Information
I refuse to be limited to the sources that the studios let us have. As such I used AI Inference Software and days of processing to create a new source sharp and clean of compression artifacts. Enjoy this world exclusive 4K Source from the good people at UTR – JoyBell

Media Information

Code:

General
Format : Matroska

Format version : Version 4 / Version 2

File size : 3.20 GiB

Duration : 1 h 37 min

Overall bit rate : 4 707 kb/s

Encoded date : UTC 2021-01-21 05:44:34

Writing application : mkvmerge v52.0.0 (‘Secret For The Mad’) 64-bit

Writing library : libebml v1.4.1 + libmatroska v1.6.2

Cover : Yes

Attachments : cover.jpg

Writing frontend : StaxRip v2.0.2.0, Encoded by JoyBell

Video
ID : 1

Format : HEVC

Format/Info : High Efficiency Video Coding

Format profile : Main [email protected]@Main

Codec ID : V_MPEGH/ISO/HEVC

Duration : 1 h 37 min

Bit rate : 4 001 kb/s

Width : 3 808 pixels

Height : 1 584 pixels

Display aspect ratio : 2.40:1

Frame rate mode : Constant

Frame rate : 23.976 (24000/1001) FPS

Color space : YUV

Chroma subsampling : 4:2:0

Bit depth : 10 bits

Bits/(Pixel*Frame) : 0.028

Stream size : 2.72 GiB (85%)

Writing library : x265 3.2+9-971180b100f8:[Windows][MSVC 1923][64 bit] 10bit

Encoding settings : cpuid=1111039 / frame-threads=3 / numa-pools=12 / wpp / no-pmode / no-pme / no-psnr / ssim / log-level=2 / input-csp=1 / input-res=3808×1584 / interlace=0 / total-frames=140176 / level-idc=0 / high-tier=1 / uhd-bd=0 / ref=4 / no-allow-non-conformance / no-repeat-headers / annexb / no-aud / no-hrd / info / hash=0 / no-temporal-layers / open-gop / min-keyint=23 / keyint=250 / gop-lookahead=0 / bframes=8 / b-adapt=2 / b-pyramid / bframe-bias=40 / rc-lookahead=80 / lookahead-slices=4 / scenecut=40 / radl=0 / no-splice / no-intra-refresh / ctu=64 / min-cu-size=8 / no-rect / no-amp / max-tu-size=32 / tu-inter-depth=1 / tu-intra-depth=1 / limit-tu=0 / rdoq-level=2 / dynamic-rd=0.00 / ssim-rd / signhide / no-tskip / nr-intra=0 / nr-inter=0 / constrained-intra / strong-intra-smoothing / max-merge=3 / limit-refs=3 / limit-modes / me=3 / subme=3 / merange=57 / temporal-mvp / no-frame-dup / no-hme / weightp / no-weightb / no-analyze-src-pics / deblock=0:0 / sao / no-sao-non-deblock / rd=4 / selective-sao=4 / early-skip / rskip / no-fast-intra / no-tskip-fast / no-cu-lossless / no-b-intra / splitrd-skip / rdpenalty=0 / psy-rd=2.45 / psy-rdoq=1.50 / no-rd-refine / no-lossless / cbqpoffs=0 / crqpoffs=0 / rc=abr / bitrate=4000 / qcomp=0.60 / qpstep=4 / stats-write=0 / stats-read=2 / cplxblur=20.0 / qblur=0.5 / ipratio=1.40 / pbratio=1.30 / aq-mode=3 / aq-strength=0.40 / cutree / zone-count=0 / no-strict-cbr / qg-size=32 / no-rc-grain / qpmax=69 / qpmin=0 / no-const-vbv / sar=0 / overscan=0 / videoformat=5 / range=0 / colorprim=2 / transfer=2 / colormatrix=2 / chromaloc=0 / display-window=0 / cll=0,0 / min-luma=0 / max-luma=1023 / log2-max-poc-lsb=8 / vui-timing-info / vui-hrd-info / slices=1 / no-opt-qp-pps / no-opt-ref-list-length-pps / multi-pass-opt-rps / scenecut-bias=0.05 / no-opt-cu-delta-qp / no-aq-motion / no-hdr / no-hdr-opt / no-dhdr10-opt / no-idr-recovery-sei / analysis-load / analysis-reuse-level=10 / scale-factor=0 / refine-intra=0 / refine-inter=0 / refine-mv=1 / refine-ctu-distortion=0 / limit-sao / ctu-info=0 / no-lowpass-dct / refine-analysis-type=0 / copy-pic=1 / max-ausize-factor=1.0 / no-dynamic-refine / no-single-sei / no-hevc-aq / no-svt / no-field / qp-adaptation-range=1.00

Default : Yes

Forced : No

Audio
ID : 2

Format : AC-3

Format/Info : Audio Coding 3

Mode extension : CM (complete main)

Format settings, Endianness : Big

Codec ID : A_AC3

Duration : 1 h 37 min

Bit rate mode : Constant

Bit rate : 640 kb/s

Channel(s) : 6 channels

Channel positions : Front: L C R, Side: L R, LFE

Sampling rate : 48.0 kHz

Frame rate : 31.250 FPS (1536 spf)

Bit depth : 16 bits

Compression mode : Lossy

Stream size : 446 MiB (14%)

Language : English

Default : No

Forced : No

Subtitle #1
ID : 3

Format : PGS

Muxing mode : zlib

Codec ID : S_HDMV/PGS

Codec ID/Info : Picture based subtitle format used on BDs/HD-DVDs

Duration : 1 h 36 min

Bit rate : 30.2 kb/s

Count of elements : 2280

Stream size : 20.8 MiB (1%)

Language : English

Default : No

Forced : No

Subtitle #2
ID : 4

Format : VobSub

Muxing mode : zlib

Codec ID : S_VOBSUB

Codec ID/Info : Picture based subtitle format used on DVDs

Duration : 1 h 35 min

Bit rate : 5 732 b/s

Count of elements : 841

Stream size : 3.93 MiB (0%)

Language : Danish

Default : No

Forced : No

Subtitle #3
ID : 5

Format : VobSub

Muxing mode : zlib

Codec ID : S_VOBSUB

Codec ID/Info : Picture based subtitle format used on DVDs

Duration : 1 h 35 min

Bit rate : 5 660 b/s

Count of elements : 840

Stream size : 3.88 MiB (0%)

Language : Dutch

Default : No

Forced : No

Subtitle #4
ID : 6

Format : VobSub

Muxing mode : zlib

Codec ID : S_VOBSUB

Codec ID/Info : Picture based subtitle format used on DVDs

Duration : 1 h 35 min

Bit rate : 5 717 b/s

Count of elements : 845

Stream size : 3.92 MiB (0%)

Language : Finnish

Default : No

Forced : No

Subtitle #5
ID : 7

Format : VobSub

Muxing mode : zlib

Codec ID : S_VOBSUB

Codec ID/Info : Picture based subtitle format used on DVDs

Duration : 1 h 36 min

Bit rate : 5 300 b/s

Count of elements : 873

Stream size : 3.67 MiB (0%)

Language : French

Default : No

Forced : No

Subtitle #6
ID : 8

Format : VobSub

Muxing mode : zlib

Codec ID : S_VOBSUB

Codec ID/Info : Picture based subtitle format used on DVDs

Duration : 1 h 36 min

Bit rate : 8 032 b/s

Count of elements : 1131

Stream size : 5.53 MiB (0%)

Language : German

Default : No

Forced : No

Subtitle #7
ID : 9

Format : VobSub

Muxing mode : zlib

Codec ID : S_VOBSUB

Codec ID/Info : Picture based subtitle format used on DVDs

Duration : 1 h 36 min

Bit rate : 5 848 b/s

Count of elements : 837

Stream size : 4.05 MiB (0%)

Language : Italian

Default : No

Forced : No

Subtitle #8
ID : 10

Format : VobSub

Muxing mode : zlib

Codec ID : S_VOBSUB

Codec ID/Info : Picture based subtitle format used on DVDs

Duration : 1 h 36 min

Bit rate : 6 918 b/s

Count of elements : 971

Stream size : 4.80 MiB (0%)

Language : Italian

Default : No

Forced : No

Subtitle #9
ID : 11

Format : VobSub

Muxing mode : zlib

Codec ID : S_VOBSUB

Codec ID/Info : Picture based subtitle format used on DVDs

Duration : 1 h 31 min

Bit rate : 5 058 b/s

Count of elements : 1116

Stream size : 3.30 MiB (0%)

Language : Japanese

Default : No

Forced : No

Subtitle #10
ID : 12

Format : VobSub

Muxing mode : zlib

Codec ID : S_VOBSUB

Codec ID/Info : Picture based subtitle format used on DVDs

Duration : 1 h 36 min

Bit rate : 5 607 b/s

Count of elements : 846

Stream size : 3.88 MiB (0%)

Language : Norwegian Bokmal

Default : No

Forced : No

Subtitle #11
ID : 13

Format : VobSub

Muxing mode : zlib

Codec ID : S_VOBSUB

Codec ID/Info : Picture based subtitle format used on DVDs

Duration : 1 h 36 min

Bit rate : 6 548 b/s

Count of elements : 811

Stream size : 4.53 MiB (0%)

Language : Portuguese

Default : No

Forced : No

Subtitle #12
ID : 14

Format : VobSub

Muxing mode : zlib

Codec ID : S_VOBSUB

Codec ID/Info : Picture based subtitle format used on DVDs

Duration : 1 h 36 min

Bit rate : 6 314 b/s

Count of elements : 829

Stream size : 4.37 MiB (0%)

Language : Portuguese

Default : No

Forced : No

Subtitle #13
ID : 15

Format : VobSub

Muxing mode : zlib

Codec ID : S_VOBSUB

Codec ID/Info : Picture based subtitle format used on DVDs

Duration : 1 h 36 min

Bit rate : 6 742 b/s

Count of elements : 923

Stream size : 4.66 MiB (0%)

Language : Spanish

Default : No

Forced : No

Subtitle #14
ID : 16

Format : VobSub

Muxing mode : zlib

Codec ID : S_VOBSUB

Codec ID/Info : Picture based subtitle format used on DVDs

Duration : 1 h 36 min

Bit rate : 5 541 b/s

Count of elements : 795

Stream size : 3.83 MiB (0%)

Language : Spanish

Default : No

Forced : No

Subtitle #15
ID : 17

Format : VobSub

Muxing mode : zlib

Codec ID : S_VOBSUB

Codec ID/Info : Picture based subtitle format used on DVDs

Duration : 1 h 35 min

Bit rate : 5 805 b/s

Count of elements : 797

Stream size : 3.98 MiB (0%)

Language : Swedish

Default : No

Forced : No

Subtitle #16
ID : 18

Format : UTF-8

Codec ID : S_TEXT/UTF8

Codec ID/Info : UTF-8 Plain Text

Duration : 1 h 34 min

Bit rate : 103 b/s

Count of elements : 1321

Stream size : 71.6 KiB (0%)

Language : Arabic

Default : No

Forced : No

Subtitle #17
ID : 19

Format : UTF-8

Codec ID : S_TEXT/UTF8

Codec ID/Info : UTF-8 Plain Text

Duration : 1 h 32 min

Bit rate : 55 b/s

Count of elements : 873

Stream size : 38.0 KiB (0%)

Language : Persian

Default : No

Forced : No

Subtitle #18
ID : 20

Format : UTF-8

Codec ID : S_TEXT/UTF8

Codec ID/Info : UTF-8 Plain Text

Duration : 1 h 28 min

Bit rate : 55 b/s

Count of elements : 873

Stream size : 36.0 KiB (0%)

Language : Greek

Default : No

Forced : No

Subtitle #19
ID : 21

Format : UTF-8

Codec ID : S_TEXT/UTF8

Codec ID/Info : UTF-8 Plain Text

Duration : 1 h 32 min

Bit rate : 64 b/s

Count of elements : 937

Stream size : 43.4 KiB (0%)

Language : Vietnamese

Default : No

Forced : No

Subtitle #20
ID : 22

Format : UTF-8

Codec ID : S_TEXT/UTF8

Codec ID/Info : UTF-8 Plain Text

Duration : 1 h 29 min

Bit rate : 41 b/s

Count of elements : 904

Stream size : 27.0 KiB (0%)

Language : Indonesian

Default : No

Forced : No

Subtitle #21
ID : 23

Format : UTF-8

Codec ID : S_TEXT/UTF8

Codec ID/Info : UTF-8 Plain Text

Duration : 1 h 33 min

Bit rate : 36 b/s

Count of elements : 1025

Stream size : 25.0 KiB (0%)

Language : Italian

Default : No

Forced : No

Subtitle #22
ID : 24

Format : UTF-8

Codec ID : S_TEXT/UTF8

Codec ID/Info : UTF-8 Plain Text

Duration : 1 h 37 min

Bit rate : 85 b/s

Count of elements : 844

Stream size : 61.1 KiB (0%)

Language : Thai

Default : No

Forced : No

Menu
00:00:00.000 : en:Boardwalk Prey

00:03:09.022 : en:Welcome to Santa Carla

00:06:23.549 : en:Arrival at Grandpa’s

00:09:38.411 : en:First Night

00:13:56.335 : en:The Frog Brothers

00:15:43.275 : en:Deadly Interruption

00:17:06.859 : en:Higher Purpose

00:19:00.305 : en:The Challenge

00:21:17.276 : en:Ride to Hudson’s Bluff

00:23:43.922 : en:Feeding Time at the Lair

00:27:54.005 : en:One of Us

00:30:21.820 : en:Railroad Bridge

00:35:11.609 : en:Michael’s Transformation

00:41:38.496 : en:Uncontrollable Urge to Fly

00:46:47.471 : en:Max’s Visitors

00:47:59.543 : en:Lovers

00:50:51.381 : en:Behind the Sunglasses

00:52:10.627 : en:Max’s Hounds of Hell

00:54:41.111 : en:Dinner with Max and the Frogs

00:59:36.906 : en:Time to Join the Club

01:03:26.803 : en:Harder to Resist

01:06:09.799 : en:Hunting the Undead

01:12:15.831 : en:On Their Own

01:14:46.982 : en:Preparations for Battle

01:18:10.519 : en:Under Seige

01:20:06.468 : en:Garlic Bloodbath

01:21:30.218 : en:Death By Stereo

01:23:20.829 : en:Attack of Eddie Munster

01:24:47.415 : en:Michael vs. David

01:27:31.246 : en:Head Bloodsucker

01:30:10.071 : en:All the Damn Vampires

01:32:58.239 : en:End Credits

Source Information

Code:

Release:
The Lost Boys (1987) BluRay.2160p.AI.DTS.UTR.mkv (30.72 GBs)

Code:


Note From UTR
Whilst we are happy for our releases to be re-posted on a platform we aren’t on, please do so in an ‘as-is’ format. We ask that you do not create a new torrent, include all descriptions you see above including the UTR logo, tags, notes and screenshots. If you’d like to become a permanent poster on a website we don’t post to, feel free to get in contact with a UTR member.

If possible please donate for seedboxes.

BTC – 1QA5fum5AyXvWzdVCkQzUNvw3Ef15fHRaR

Monero – 8AuksPSzY7fen3HHT1a2342PgVy4J93MKfXG3AAcayV76miTyJ3sNfn38srwrpLirGfeR5DwhTL8GW8pdQgT7bZcJ25ynMx

Dash – Xh4mNs6uwZdpCEX2HSEVwGvPD7yKxZ1Ccd

Ethereum – 0x51c06c94e74c16735a7a6e841ad29fc90a84eb1f

The Lost Boys (1987) (2160p BDownload Torrent Magnet

#Lost #Boys #2160p