The Long Kiss Goodnight (1996 Full Torrent Magnet Download

Download Torrent The Long Kiss Goodnight (1996 Movie Full in HD Result. Movie The Long Kiss Goodnight (1996 Torrent Download full. Movie The Long Kiss Goodnight (1996 torrent Magnet Download Full. The Long Kiss Goodnight (1996 Full Movie Torrent Download And Magnet Download For your PC And Mobiles. Latest Movie The Long Kiss Goodnight (1996 Download Link In Bottom.

Torrent And Magnet Links Below

“…the most spectacular action scenes you’ve ever seen!”

The Long Kiss Goodnight (1996) 1080p 10bit Bluray x265 HEVC English DDP 5.1 ESub ~ TombDoc

Code:

Format                                   : Matroska

Format version                           : Version 4

File size                                : 3.76 GiB

Duration                                 : 2 h 0 min

Overall bit rate                         : 4 462 kb/s

Video

ID                                       : 1

Format                                   : HEVC

Format/Info                              : High Efficiency Video Coding

Format profile                           : Main [email protected]@Main

Codec ID                                 : V_MPEGH/ISO/HEVC

Duration                                 : 2 h 0 min

Bit rate                                 : 3 999 kb/s

Width                                    : 1 920 pixels

Height                                   : 800 pixels

Display aspect ratio                     : 2.40:1

Frame rate mode                          : Constant

Frame rate                               : 23.976 (24000/1001) FPS

Color space                              : YUV

Chroma subsampling                       : 4:2:0

Bit depth                                : 10 bits

Bits/(Pixel*Frame)                       : 0.109

Stream size                              : 3.37 GiB (90%)

Writing library                          : x265M – 3.4+28-419182243:[Windows][GCC 10.2.0][64 bit] 10bit

Encoding settings                        : cpuid=1111039 / frame-threads=4 / numa-pools=24 / wpp / no-pmode / no-pme / no-psnr / no-ssim / log-level=2 / input-csp=1 / input-res=1920×800 / interlace=0 / total-frames=173425 / level-idc=0 / high-tier=1 / uhd-bd=0 / ref=5 / no-allow-non-conformance / no-repeat-headers / annexb / no-aud / no-hrd / info / hash=0 / no-temporal-layers / open-gop / min-keyint=23 / keyint=250 / gop-lookahead=0 / bframes=8 / b-adapt=2 / b-pyramid / bframe-bias=0 / rc-lookahead=100 / lookahead-slices=4 / scenecut=40 / hist-scenecut=0 / radl=0 / no-splice / no-intra-refresh / ctu=64 / min-cu-size=8 / rect / amp / max-tu-size=32 / tu-inter-depth=2 / tu-intra-depth=2 / limit-tu=1 / rdoq-level=2 / dynamic-rd=0.00 / ssim-rd / signhide / no-tskip / nr-intra=0 / nr-inter=0 / no-constrained-intra / strong-intra-smoothing / max-merge=5 / limit-refs=3 / limit-modes / me=3 / subme=6 / merange=57 / temporal-mvp / no-frame-dup / no-hme / weightp / no-weightb / no-analyze-src-pics / deblock=0:0 / sao / no-sao-non-deblock / rd=4 / selective-sao=4 / no-early-skip / rskip / no-fast-intra / no-tskip-fast / no-cu-lossless / no-b-intra / no-splitrd-skip / rdpenalty=0 / psy-rd=0.00 / psy-rdoq=2.00 / no-rd-refine / no-lossless / cbqpoffs=0 / crqpoffs=0 / rc=abr / bitrate=4000 / qcomp=0.60 / qpstep=4 / stats-write=0 / stats-read=2 / cplxblur=20.0 / qblur=0.5 / ipratio=1.40 / pbratio=1.30 / aq-mode=4 / aq-strength=1.00 / cutree / zone-count=0 / no-strict-cbr / qg-size=32 / rc-grain / qpmax=69 / qpmin=0 / no-const-vbv / sar=0 / overscan=0 / videoformat=5 / range=0 / colorprim=2 / transfer=2 / colormatrix=2 / chromaloc=0 / display-window=0 / cll=0,0 / min-luma=0 / max-luma=1023 / log2-max-poc-lsb=8 / vui-timing-info / vui-hrd-info / slices=1 / no-opt-qp-pps / no-opt-ref-list-length-pps / no-multi-pass-opt-rps / scenecut-bias=0.05 / hist-threshold=0.03 / no-opt-cu-delta-qp / aq-motion / no-hdr10 / no-hdr10-opt / no-dhdr10-opt / no-idr-recovery-sei / analysis-reuse-level=0 / analysis-save-reuse-level=0 / analysis-load-reuse-level=0 / scale-factor=0 / refine-intra=0 / refine-inter=0 / refine-mv=1 / refine-ctu-distortion=0 / no-limit-sao / ctu-info=0 / no-lowpass-dct / refine-analysis-type=0 / copy-pic=1 / max-ausize-factor=1.0 / no-dynamic-refine / no-single-sei / hevc-aq / no-svt / no-field / qp-adaptation-range=1.00 / no-scenecut-aware-qpconformance-window-offsets / right=0 / bottom=0 / decoder-max-rate=0 / no-vbv-live-multi-pass

Default                                  : Yes

Forced                                   : No

Audio

ID                                       : 2

Format                                   : E-AC-3

Format/Info                              : Enhanced AC-3

Commercial name                          : Dolby Digital Plus

Codec ID                                 : A_EAC3

Duration                                 : 2 h 0 min

Bit rate mode                            : Constant

Bit rate                                 : 448 kb/s

Channel(s)                               : 6 channels

Channel layout                           : L R C LFE Ls Rs

Sampling rate                            : 48.0 kHz

Frame rate                               : 31.250 FPS (1536 SPF)

Compression mode                         : Lossy

Stream size                              : 386 MiB (10%)

Title                                    : English DD+ 5.1 448Kbps ~ TombDoc

Language                                 : English

Service kind                             : Complete Main

Default                                  : Yes

Forced                                   : Yes

Text

ID                                       : 3

Format                                   : PGS

Muxing mode                              : zlib

Codec ID                                 : S_HDMV/PGS

Codec ID/Info                            : Picture based subtitle format used on BDs/HD-DVDs

Duration                                 : 1 h 57 min

Bit rate                                 : 29.8 kb/s

Count of elements                        : 2896

Stream size                              : 25.0 MiB (1%)

Title                                    : Eng BD-PGS-SDH

Language                                 : English

Default                                  : Yes

Forced                                   : Yes

Menu

00:00:00.000                             : en:Opening Credits

00:09:05.920                             : en:Main Title

00:22:07.034                             : en:Bed Agreement

00:32:35.870                             : en:Party Crashers

00:47:33.934                             : en:Eye-Opening Chat

01:03:52.703                             : en:Mom’s Cooking

01:15:14.593                             : en:A Cold, Hard Lesson

01:28:16.207                             : en:Visitor From the Past

01:36:53.849                             : en:Quest for the Truth

01:47:25.021                             : en:Calling Information

Code:

Source: The Long Kiss Goodnight 1996 BluRay 1080p DTS-HD MA 5.1 VC-1 REMUX-FraMeSToR

The Long Kiss Goodnight (1996Download Torrent Magnet

#Long #Kiss #Goodnight