The.Little.Things.2021.HDRip. Full Torrent Magnet Download

Download Torrent The.Little.Things.2021.HDRip. Movie Full in HD Result. Movie The.Little.Things.2021.HDRip. Torrent Download full. Movie The.Little.Things.2021.HDRip. torrent Magnet Download Full. The.Little.Things.2021.HDRip. Full Movie Torrent Download And Magnet Download For your PC And Mobiles. Latest Movie The.Little.Things.2021.HDRip. Download Link In Bottom.

Torrent And Magnet Links Below

The.Little.Things.2021.HDRip.XviD.B4ND1T69

Director: John Lee Hancock

Writer: John Lee Hancock

Stars: Denzel Washington, Rami Malek, Jared Leto

Plot/Story:

Deke (Denzel Washington), a burnt-out Kern County, CA deputy sheriff teams up with Baxter (Rami Malek), a crack LASD detective, to nab a serial killer. Deke’s nose for the “little things” proves eerily accurate, but his willingness to circumvent the rules embroils Baxter in a soul-shattering dilemma. Meanwhile, Deke must wrestle with a dark secret from his past.

General

Complete name : The.Little.Things.2021.HDRip.XviD.B4ND1T69.avi

Format : AVI

Format/Info : Audio Video Interleave

File size : 890 MiB

Duration : 2 h 7 min

Overall bit rate : 973 kb/s

Subtitles : Yes…Included(HI)

Video

ID : 0

Format : MPEG-4 Visual

Format profile : Advanced [email protected]
Format settings, BVOP : 2

Format settings, QPel : No

Format settings, GMC : No warppoints

Format settings, Matrix : Default (H.263)

Codec ID : XVID

Codec ID/Hint : XviD

Duration : 2 h 7 min

Bit rate : 832 kb/s

Width : 720 pixels

Height : 304 pixels

Display aspect ratio : 2.35:1

Frame rate : 23.976 (24000/1001) FPS

Color space : YUV

Chroma subsampling : 4:2:0

Bit depth : 8 bits

Scan type : Progressive

Compression mode : Lossy

Bits/(Pixel*Frame) : 0.159

Stream size : 761 MiB (86%)

Writing library : XviD 64

Audio

ID : 1

Format : MPEG Audio

Format version : Version 1

Format profile : Layer 3

Codec ID : 55

Codec ID/Hint : MP3

Duration : 2 h 7 min

Bit rate mode : Constant

Bit rate : 128 kb/s

Channel(s) : 2 channels

Sampling rate : 48.0 kHz

Compression mode : Lossy

Stream size : 117 MiB (13%)

Alignment : Aligned on interleaves

Interleave, duration : 24 ms (0.58 video frame)

Screenshots:









Please Seed For As Long As Possible

Or At Least 1:1 Ratio…Thanks

Enjoy Peeps

The.Little.Things.2021.HDRip.Download Torrent Magnet

#TheLittleThings2021HDRip