The.Letter.Room.2020.1080p.WE Full Torrent Magnet Download

Download Torrent The.Letter.Room.2020.1080p.WE Movie Full in HD Result. Movie The.Letter.Room.2020.1080p.WE Torrent Download full. Movie The.Letter.Room.2020.1080p.WE torrent Magnet Download Full. The.Letter.Room.2020.1080p.WE Full Movie Torrent Download And Magnet Download For your PC And Mobiles. Latest Movie The.Letter.Room.2020.1080p.WE Download Link In Bottom.

Torrent And Magnet Links Below

Release: The.Letter.Room.2020.1080p.WEB-DL.x264.AAC.HORiZON-ArtSubs

IMDB: https://www.imdb.com/title/tt11962160

Subtitle: English (soft)

Plot: When a corrections officer is transferred to the letter room, he soon finds himself enmeshed in a prisoner’s deeply private life. Nominated for Best Live Action Short Film in the Oscar 2021.

General

Complete name : The.Letter.Room.2020.1080p.WEB-DL.x264.AAC.HORiZON-ArtSubs.mkv

Format : Matroska

Format version : Version 4

File size : 1.19 GiB

Duration : 32 min 31 s

Overall bit rate : 5 245 kb/s

Encoded date : UTC 2021-03-12 11:53:12

Writing application : mkvmerge v52.0.0 (‘Secret For The Mad’) 64-bit

Writing library : libebml v1.4.1 + libmatroska v1.6.2

Video

ID : 1

Format : AVC

Format/Info : Advanced Video Codec

Format profile : [email protected]
Format settings : CABAC / 4 Ref Frames

Format settings, CABAC : Yes

Format settings, Reference : 4 frames

Codec ID : V_MPEG4/ISO/AVC

Duration : 32 min 31 s

Bit rate : 5 000 kb/s

Width : 1 920 pixels

Height : 1 036 pixels

Display aspect ratio : 1.85:1

Frame rate mode : Constant

Frame rate : 23.976 (24000/1001) FPS

Color space : YUV

Chroma subsampling : 4:2:0

Bit depth : 8 bits

Scan type : Progressive

Bits/(Pixel*Frame) : 0.105

Stream size : 1.13 GiB (95%)

Writing library : x264 core 157 r2935 545de2f

Encoding settings : cabac=1 / ref=4 / deblock=1:-2:-2 / analyse=0x3:0x133 / me=umh / subme=9 / psy=1 / psy_rd=1.00:0.25 / mixed_ref=1 / me_range=32 / chroma_me=1 / trellis=2 / 8x8dct=1 / cqm=0 / deadzone=6,6 / fast_pskip=1 / chroma_qp_offset=-4 / threads=6 / lookahead_threads=1 / sliced_threads=0 / nr=0 / decimate=0 / interlaced=0 / bluray_compat=0 / constrained_intra=0 / bframes=3 / b_pyramid=2 / b_adapt=2 / b_bias=0 / direct=3 / weightb=1 / open_gop=0 / weightp=2 / keyint=240 / keyint_min=24 / scenecut=40 / intra_refresh=0 / rc_lookahead=60 / rc=2pass / mbtree=1 / bitrate=5000 / ratetol=1.0 / qcomp=0.75 / qpmin=0 / qpmax=69 / qpstep=4 / cplxblur=20.0 / qblur=0.5 / vbv_maxrate=25000 / vbv_bufsize=78125 / nal_hrd=none / filler=0 / ip_ratio=1.10 / aq=3:1.20

Default : Yes

Forced : No

Color range : Limited

Color primaries : BT.709

Transfer characteristics : BT.709

Matrix coefficients : BT.709

Audio

ID : 2

Format : AAC LC

Format/Info : Advanced Audio Codec Low Complexity

Codec ID : A_AAC-2

Duration : 32 min 31 s

Bit rate : 253 kb/s

Channel(s) : 2 channels

Channel layout : L R

Sampling rate : 48.0 kHz

Frame rate : 46.875 FPS (1024 SPF)

Compression mode : Lossy

Delay relative to video : -21 ms

Stream size : 58.8 MiB (5%)

Language : English

Default : Yes

Forced : No

Text

ID : 3

Format : UTF-8

Codec ID : S_TEXT/UTF8

Codec ID/Info : UTF-8 Plain Text

Duration : 28 min 50 s

Bit rate : 46 b/s

Count of elements : 333

Stream size : 9.77 KiB (0%)

Language : English

Default : Yes

Forced : No

SCREENSHOTS:




The.Letter.Room.2020.1080p.WEDownload Torrent Magnet

#TheLetterRoom20201080pWE