The League Of Gentlemens Apoc Full Torrent Magnet Download

Download Torrent The League Of Gentlemens Apoc Movie Full in HD Result. Movie The League Of Gentlemens Apoc Torrent Download full. Movie The League Of Gentlemens Apoc torrent Magnet Download Full. The League Of Gentlemens Apoc Full Movie Torrent Download And Magnet Download For your PC And Mobiles. Latest Movie The League Of Gentlemens Apoc Download Link In Bottom.

Torrent And Magnet Links Below

This is The.League.Of.Gentlemens.Apocalypse.2005.GERMAN.DL.1080P.WEB.H264-WAYNE with the german language audio removed.

I’m releasing this because I could not find a quality english release of this originally english movie. All credits to the original release group.

English subtitles included

Screenshots, click for full size:



Code:

The.League.Of.Gentlemens.Apocalypse.2005.English.Only.1080P.WEB.H264-WAYNE.mkv

Format : Matroska

Format version : Version 4

File size : 7.33 GiB

Duration : 1 h 27 min

Overall bit rate : 12.0 Mb/s

Encoded date : UTC 2021-01-26 07:14:19

Writing application : mkvmerge v52.0.0 (‘Secret For The Mad’) 64-bit

Writing library : libebml v1.4.1 + libmatroska v1.6.2

Video

ID : 1

Format : AVC

Format/Info : Advanced Video Codec

Format profile : [email protected]
Format settings : CABAC / 4 Ref Frames

Format settings, CABAC : Yes

Format settings, Reference frames : 4 frames

Codec ID : V_MPEG4/ISO/AVC

Duration : 1 h 27 min

Bit rate : 11.7 Mb/s

Width : 1 920 pixels

Height : 1 080 pixels

Display aspect ratio : 16:9

Frame rate mode : Constant

Frame rate : 23.976 (24000/1001) FPS

Color space : YUV

Chroma subsampling : 4:2:0

Bit depth : 8 bits

Scan type : Progressive

Bits/(Pixel*Frame) : 0.236

Stream size : 7.19 GiB (98%)

Default : Yes

Forced : No

Color range : Limited

Color primaries : BT.709

Transfer characteristics : BT.709

Matrix coefficients : BT.709

Audio

ID : 2

Format : E-AC-3

Format/Info : Enhanced AC-3

Commercial name : Dolby Digital Plus

Codec ID : A_EAC3

Duration : 1 h 27 min

Bit rate mode : Constant

Bit rate : 224 kb/s

Channel(s) : 2 channels

Channel layout : L R

Sampling rate : 48.0 kHz

Frame rate : 31.250 FPS (1536 SPF)

Compression mode : Lossy

Stream size : 141 MiB (2%)

Language : English

Service kind : Complete Main

Default : No

Forced : No

Text

ID : 3

Format : UTF-8

Codec ID : S_TEXT/UTF8

Codec ID/Info : UTF-8 Plain Text

Duration : 1 h 25 min

Bit rate : 60 b/s

Count of elements : 1339

Stream size : 37.9 KiB (0%)

Title : English [CC]
Language : English

Default : No

Forced : No

The League Of Gentlemens ApocDownload Torrent Magnet

#League #Gentlemens #Apoc