The Last Castle (2001) 1080p Full Torrent Magnet Download

Download Torrent The Last Castle (2001) 1080p Movie Full in HD Result. Movie The Last Castle (2001) 1080p Torrent Download full. Movie The Last Castle (2001) 1080p torrent Magnet Download Full. The Last Castle (2001) 1080p Full Movie Torrent Download And Magnet Download For your PC And Mobiles. Latest Movie The Last Castle (2001) 1080p Download Link In Bottom.

Torrent And Magnet Links Below

A castle can only have one king…

The Last Castle (2001) 1080p 10bit Bluray x265 HEVC [Org DD 2.0 Hindi + DD 5.1 English] MSubs ~ TombDoc

Code:

Format : Matroska

Format version : Version 4

File size : 4.36 GiB

Duration : 2 h 11 min

Overall bit rate : 4 758 kb/s

Video

ID : 1

Format : HEVC

Format/Info : High Efficiency Video Coding

Format profile : Main [email protected]@Main

Codec ID : V_MPEGH/ISO/HEVC

Duration : 2 h 11 min

Bit rate : 4 002 kb/s

Width : 1 920 pixels

Height : 800 pixels

Display aspect ratio : 2.40:1

Frame rate mode : Constant

Frame rate : 23.976 (24000/1001) FPS

Color space : YUV

Chroma subsampling : 4:2:0

Bit depth : 10 bits

Bits/(Pixel*Frame) : 0.109

Stream size : 3.67 GiB (84%)

Writing library : x265 3.5+10+13-7c9bc0cb14:[Windows][GCC 10.2.0][64 bit] 10bit

Encoding settings : cpuid=1111039 / frame-threads=4 / numa-pools=16 / wpp / no-pmode / no-pme / no-psnr / no-ssim / log-level=2 / input-csp=1 / input-res=1920×800 / interlace=0 / total-frames=188722 / level-idc=0 / high-tier=1 / uhd-bd=0 / ref=5 / no-allow-non-conformance / no-repeat-headers / annexb / no-aud / no-eob / no-eos / no-hrd / info / hash=0 / no-temporal-layers / open-gop / min-keyint=23 / keyint=250 / gop-lookahead=0 / bframes=8 / b-adapt=2 / b-pyramid / bframe-bias=0 / rc-lookahead=100 / lookahead-slices=4 / scenecut=40 / hist-scenecut=0 / radl=0 / no-splice / no-intra-refresh / ctu=64 / min-cu-size=8 / rect / amp / max-tu-size=32 / tu-inter-depth=2 / tu-intra-depth=2 / limit-tu=1 / rdoq-level=2 / dynamic-rd=0.00 / ssim-rd / signhide / no-tskip / nr-intra=0 / nr-inter=0 / no-constrained-intra / strong-intra-smoothing / max-merge=5 / limit-refs=3 / limit-modes / me=3 / subme=6 / merange=57 / temporal-mvp / no-frame-dup / no-hme / weightp / no-weightb / no-analyze-src-pics / deblock=0:0 / sao / no-sao-non-deblock / rd=4 / selective-sao=4 / no-early-skip / rskip / no-fast-intra / no-tskip-fast / no-cu-lossless / no-b-intra / no-splitrd-skip / rdpenalty=0 / psy-rd=0.00 / psy-rdoq=2.00 / no-rd-refine / no-lossless / cbqpoffs=0 / crqpoffs=0 / rc=abr / bitrate=4000 / qcomp=0.60 / qpstep=4 / stats-write=0 / stats-read=2 / cplxblur=20.0 / qblur=0.5 / ipratio=1.40 / pbratio=1.30 / aq-mode=4 / aq-strength=1.00 / cutree / zone-count=0 / no-strict-cbr / qg-size=32 / rc-grain / qpmax=69 / qpmin=0 / no-const-vbv / sar=0 / overscan=0 / videoformat=5 / range=0 / colorprim=2 / transfer=2 / colormatrix=2 / chromaloc=0 / display-window=0 / cll=0,0 / min-luma=0 / max-luma=1023 / log2-max-poc-lsb=8 / vui-timing-info / vui-hrd-info / slices=1 / no-opt-qp-pps / no-opt-ref-list-length-pps / no-multi-pass-opt-rps / scenecut-bias=0.05 / hist-threshold=0.03 / no-opt-cu-delta-qp / aq-motion / no-hdr10 / no-hdr10-opt / no-dhdr10-opt / no-idr-recovery-sei / analysis-reuse-level=0 / analysis-save-reuse-level=0 / analysis-load-reuse-level=0 / scale-factor=0 / refine-intra=0 / refine-inter=0 / refine-mv=1 / refine-ctu-distortion=0 / no-limit-sao / ctu-info=0 / no-lowpass-dct / refine-analysis-type=0 / copy-pic=1 / max-ausize-factor=1.0 / no-dynamic-refine / no-single-sei / hevc-aq / no-svt / no-field / qp-adaptation-range=1.00 / scenecut-aware-qp=0 / conformance-window-right-offset=0 / conformance-window-bottom-offset=0 / decoder-max-rate=0 / no-vbv-live-multi-pass

Default : Yes

Forced : No

Audio #1

ID : 2

Format : E-AC-3

Format/Info : Enhanced AC-3

Commercial name : Dolby Digital Plus

Codec ID : A_EAC3

Duration : 2 h 11 min

Bit rate mode : Constant

Bit rate : 224 kb/s

Channel(s) : 2 channels

Channel layout : L R

Sampling rate : 48.0 kHz

Frame rate : 31.250 FPS (1536 SPF)

Compression mode : Lossy

Delay relative to video : 13 ms

Stream size : 210 MiB (5%)

Title : Org Amz DD+ 2.0 224Kbps ~ TombDoc

Language : Hindi

Service kind : Complete Main

Default : Yes

Forced : Yes

Audio #2

ID : 3

Format : E-AC-3

Format/Info : Enhanced AC-3

Commercial name : Dolby Digital Plus

Codec ID : A_EAC3

Duration : 2 h 11 min

Bit rate mode : Constant

Bit rate : 448 kb/s

Channel(s) : 6 channels

Channel layout : L R C LFE Ls Rs

Sampling rate : 48.0 kHz

Frame rate : 31.250 FPS (1536 SPF)

Compression mode : Lossy

Stream size : 420 MiB (9%)

Title : DD+ 5.1 English

Language : English

Service kind : Complete Main

Default : No

Forced : No

Text #1

ID : 4

Format : PGS

Muxing mode : zlib

Codec ID : S_HDMV/PGS

Codec ID/Info : Picture based subtitle format used on BDs/HD-DVDs

Duration : 2 h 10 min

Bit rate : 22.8 kb/s

Count of elements : 3122

Stream size : 21.3 MiB (0%)

Title : Hindi BD-PGS

Language : Hindi

Default : Yes

Forced : Yes

Text #2

ID : 5

Format : PGS

Muxing mode : zlib

Codec ID : S_HDMV/PGS

Codec ID/Info : Picture based subtitle format used on BDs/HD-DVDs

Duration : 2 h 4 min

Bit rate : 38.2 kb/s

Count of elements : 3067

Stream size : 34.1 MiB (1%)

Title : Eng BD-PGS

Language : English

Default : No

Forced : No

Text #3

ID : 6

Format : PGS

Muxing mode : zlib

Codec ID : S_HDMV/PGS

Codec ID/Info : Picture based subtitle format used on BDs/HD-DVDs

Duration : 2 h 10 min

Bit rate : 43.0 kb/s

Count of elements : 3468

Stream size : 40.1 MiB (1%)

Title : Eng BD-PGS-SDH

Language : English

Default : No

Forced : No

Text #4

ID : 7

Format : PGS

Muxing mode : zlib

Codec ID : S_HDMV/PGS

Codec ID/Info : Picture based subtitle format used on BDs/HD-DVDs

Duration : 2 h 8 min

Bit rate : 71.6 kb/s

Count of elements : 4282

Stream size : 65.9 MiB (1%)

Title : Commentary

Language : English

Default : No

Forced : No

Menu

00:00:00.000 : Chapter 01

00:06:07.200 : Chapter 02

00:13:37.233 : Chapter 03

00:17:54.323 : Chapter 04

00:23:08.387 : Chapter 05

00:28:11.023 : Chapter 06

00:35:48.438 : Chapter 07

00:43:26.312 : Chapter 08

00:46:38.587 : Chapter 09

00:52:44.370 : Chapter 10

00:57:44.628 : Chapter 11

01:02:39.047 : Chapter 12

01:07:28.503 : Chapter 13

01:14:05.941 : Chapter 14

01:19:02.821 : Chapter 15

01:25:23.702 : Chapter 16

01:32:15.739 : Chapter 17

01:37:12.702 : Chapter 18

01:43:16.732 : Chapter 19

01:46:38.392 : Chapter 20

01:49:19.595 : Chapter 21

01:56:01.371 : Chapter 22

01:59:52.811 : Chapter 23

02:05:57.633 : Chapter 24

Code:

Source: The.Last.Castle.2001.MULTi.COMPLETE.BLURAY-NEWHAM

EnjOyY the Quality…

The Last Castle (2001) 1080p Download Torrent Magnet

#Castle #1080p