The.Keep.1983.DVDRip.XviD.B4N Full Torrent Magnet Download

Download Torrent The.Keep.1983.DVDRip.XviD.B4N Movie Full in HD Result. Movie The.Keep.1983.DVDRip.XviD.B4N Torrent Download full. Movie The.Keep.1983.DVDRip.XviD.B4N torrent Magnet Download Full. The.Keep.1983.DVDRip.XviD.B4N Full Movie Torrent Download And Magnet Download For your PC And Mobiles. Latest Movie The.Keep.1983.DVDRip.XviD.B4N Download Link In Bottom.

Torrent And Magnet Links Below

The.Keep.1983.DVDRip.XviD.B4ND1T69

Director: Michael Mann

Writers: F. Paul Wilson (novel), Michael Mann (screenplay)

Stars: Scott Glenn, Ian McKellen, Alberta Watson

Plot/Story:

Nazis are forced to turn to a Jewish historian for help in battling the ancient demon they have inadvertently freed from its prison.

General

Complete name : The.Keep.1983.DVDRip.XviD.B4ND1T69.avi

Format : AVI

Format/Info : Audio Video Interleave

File size : 617 MiB

Duration : 1 h 35 min

Overall bit rate : 900 kb/s

Subtitles : Yes…Included

Video

ID : 0

Format : MPEG-4 Visual

Format profile : Advanced [email protected]
Format settings, BVOP : 2

Format settings, QPel : No

Format settings, GMC : No warppoints

Format settings, Matrix : Default (H.263)

Codec ID : XVID

Codec ID/Hint : XviD

Duration : 1 h 35 min

Bit rate : 759 kb/s

Width : 720 pixels

Height : 368 pixels

Display aspect ratio : 1.957

Frame rate : 23.976 (24000/1001) FPS

Color space : YUV

Chroma subsampling : 4:2:0

Bit depth : 8 bits

Scan type : Progressive

Compression mode : Lossy

Bits/(Pixel*Frame) : 0.120

Stream size : 520 MiB (84%)

Writing library : XviD 64

Audio

ID : 1

Format : MPEG Audio

Format version : Version 1

Format profile : Layer 3

Codec ID : 55

Codec ID/Hint : MP3

Duration : 1 h 35 min

Bit rate mode : Constant

Bit rate : 128 kb/s

Channel(s) : 2 channels

Sampling rate : 48.0 kHz

Compression mode : Lossy

Stream size : 87.7 MiB (14%)

Alignment : Aligned on interleaves

Interleave, duration : 24 ms (0.58 video frame)

Screenshots:









Please Seed For As Long As Possible

Or At Least 1:1 Ratio…Thanks

Enjoy Peeps

The.Keep.1983.DVDRip.XviD.B4NDownload Torrent Magnet

#TheKeep1983DVDRipXviDB4N