The Hurricane 1972 DVDRip x26 Full Torrent Magnet Download

Download Torrent The Hurricane 1972 DVDRip x26 Movie Full in HD Result. Movie The Hurricane 1972 DVDRip x26 Torrent Download full. Movie The Hurricane 1972 DVDRip x26 torrent Magnet Download Full. The Hurricane 1972 DVDRip x26 Full Movie Torrent Download And Magnet Download For your PC And Mobiles. Latest Movie The Hurricane 1972 DVDRip x26 Download Link In Bottom.

Torrent And Magnet Links Below

The Hurricane 1972 DVDRip x264 AC3-iCMAL [TGx]

An unsuspecting swordsman is used by a power-hungry chief minister to betray China’s emperor.

Director: Wei Lo

Writer: Wei Lo (screenplay)

Stars: Kuan Tai Chen, Tse-tse Chen, Chuan Chin

Storyline

An unsuspecting swordsman is used by a power-hungry chief minister to betray China’s emperor.

Quote:

Format : Matroska

Format version : Version 4

File size : 982 MiB

Duration : 1 h 25 min

Overall bit rate : 1 600 kb/s

Movie name : The Hurricane 1972 DVDRip x264 AC3-iCMAL

Encoded date : UTC 2021-02-15 08:50:07 / UTC 2021-02-15T07:53:53Z

Writing application : mkvmerge v10.0.0 (‘To Drown In You’) 64bit

Writing library : libebml v1.3.4 + libmatroska v1.4.5 / Lavf57.7.2

Video

ID : 1

Format : AVC

Format/Info : Advanced Video Codec

Format profile : [email protected]
Format settings : CABAC / 4 Ref Frames

Format settings, CABAC : Yes

Format settings, Reference frames : 4 frames

Codec ID : V_MPEG4/ISO/AVC

Duration : 1 h 25 min

Bit rate : 1 470 kb/s

Width : 702 pixels

Height : 360 pixels

Display aspect ratio : 2.35:1

Frame rate mode : Constant

Frame rate : 29.970 (30000/1001) FPS

Color space : YUV

Chroma subsampling : 4:2:0

Bit depth : 8 bits

Scan type : Progressive

Bits/(Pixel*Frame) : 0.194

Stream size : 902 MiB (92%)

Title : Encoding By iCMAL

Writing library : x264 core 148 r2708 86b7198

Encoding settings : cabac=1 / ref=2 / deblock=1:0:0 / analyse=0x1:0x111 / me=hex / subme=6 / psy=1 / psy_rd=1.00:0.00 / mixed_ref=1 / me_range=16 / chroma_me=1 / trellis=1 / 8x8dct=0 / cqm=0 / deadzone=21,11 / fast_pskip=1 / chroma_qp_offset=-2 / threads=6 / lookahead_threads=1 / sliced_threads=0 / nr=0 / decimate=1 / interlaced=0 / bluray_compat=0 / constrained_intra=0 / bframes=3 / b_pyramid=2 / b_adapt=1 / b_bias=0 / direct=1 / weightb=1 / open_gop=0 / weightp=1 / keyint=300 / keyint_min=30 / scenecut=40 / intra_refresh=0 / rc_lookahead=30 / rc=crf / mbtree=1 / crf=20.0 / qcomp=0.60 / qpmin=0 / qpmax=69 / qpstep=4 / vbv_maxrate=14000 / vbv_bufsize=14000 / crf_max=0.0 / nal_hrd=none / filler=0 / ip_ratio=1.40 / aq=1:1.00

Default : Yes

Forced : No

Color range : Limited

Color primaries : BT.601 NTSC

Transfer characteristics : BT.709

Matrix coefficients : BT.601

Audio

ID : 2

Format : AC-3

Format/Info : Audio Coding 3

Commercial name : Dolby Digital

Codec ID : A_AC3

Duration : 1 h 25 min

Bit rate mode : Constant

Bit rate : 128 kb/s

Channel(s) : 2 channels

Channel layout : L R

Sampling rate : 48.0 kHz

Frame rate : 31.250 FPS (1536 SPF)

Compression mode : Lossy

Delay relative to video : -5 ms

Stream size : 78.5 MiB (8%)

Title : Encoding By iCMAL

Language : Chinese

Service kind : Complete Main

Default : Yes

The Hurricane 1972 DVDRip x26Download Torrent Magnet

#Hurricane #DVDRip #x26