The.Hobbit.The.Desolation.of. Full Torrent Magnet Download

Download Torrent The.Hobbit.The.Desolation.of. Movie Full in HD Result. Movie The.Hobbit.The.Desolation.of. Torrent Download full. Movie The.Hobbit.The.Desolation.of. torrent Magnet Download Full. The.Hobbit.The.Desolation.of. Full Movie Torrent Download And Magnet Download For your PC And Mobiles. Latest Movie The.Hobbit.The.Desolation.of. Download Link In Bottom.

Torrent And Magnet Links Below

The.Hobbit.The.Desolation.of.Smaug.2013.EXTENDED.BRRip.XviD.B4ND1T69

Director: Peter Jackson

Writers: Fran Walsh (screenplay), Philippa Boyens (screenplay)

Stars: Ian McKellen, Martin Freeman, Richard Armitage

Plot/Story:

The dwarves, along with Bilbo Baggins and Gandalf the Grey, continue their quest to reclaim Erebor, their homeland, from Smaug. Bilbo Baggins is in possession of a mysterious and magical ring.

General

Complete name : The.Hobbit.The.Desolation.of.Smaug.2013.EXTENDED.BRRip.XviD.B4ND1T69.avi

Format : AVI

Format/Info : Audio Video Interleave

File size : 1.81 GiB

Duration : 3 h 6 min

Overall bit rate : 1 392 kb/s

Subtitles : Yes…Hardcoded for non-English parts + file included(HI)

Video

ID : 0

Format : MPEG-4 Visual

Format profile : Advanced [email protected]
Format settings, BVOP : 2

Format settings, QPel : No

Format settings, GMC : No warppoints

Format settings, Matrix : Default (H.263)

Codec ID : XVID

Codec ID/Hint : XviD

Duration : 3 h 6 min

Bit rate : 1 251 kb/s

Width : 688 pixels

Height : 288 pixels

Display aspect ratio : 2.40:1

Frame rate : 24.390 FPS

Color space : YUV

Chroma subsampling : 4:2:0

Bit depth : 8 bits

Scan type : Progressive

Compression mode : Lossy

Bits/(Pixel*Frame) : 0.259

Stream size : 1.63 GiB (90%)

Writing library : XviD 64

Audio

ID : 1

Format : MPEG Audio

Format version : Version 1

Format profile : Layer 3

Codec ID : 55

Codec ID/Hint : MP3

Duration : 3 h 6 min

Bit rate mode : Constant

Bit rate : 128 kb/s

Channel(s) : 2 channels

Sampling rate : 48.0 kHz

Compression mode : Lossy

Stream size : 171 MiB (9%)

Alignment : Aligned on interleaves

Interleave, duration : 24 ms (0.59 video frame)

Screenshots:









Please Seed For As Long As Possible

Or At Least 1:1 Ratio…Thanks

Enjoy Peeps

The.Hobbit.The.Desolation.of.Download Torrent Magnet

#TheHobbitTheDesolationof