The.Guardians.2017.HC.BRRip.X Full Torrent Magnet Download

Download Torrent The.Guardians.2017.HC.BRRip.X Movie Full in HD Result. Movie The.Guardians.2017.HC.BRRip.X Torrent Download full. Movie The.Guardians.2017.HC.BRRip.X torrent Magnet Download Full. The.Guardians.2017.HC.BRRip.X Full Movie Torrent Download And Magnet Download For your PC And Mobiles. Latest Movie The.Guardians.2017.HC.BRRip.X Download Link In Bottom.

Torrent And Magnet Links Below

The.Guardians.2017.HC.BRRip.XviD.B4ND1T69

Director: Sarik Andreasyan

Writers: Andrey Gavrilov (screenplay), Sarik Andreasyan (story)

Stars: Anton Pampushnyy, Sanjar Madi, Sebastien Sisak

Plot/Story:

During the Cold War, an organization called “Patriot” created a super-hero squad, which includes members of multiple Soviet republics. For years, the heroes had to hide their identities, but in hard times they must show themselves again.

General

Complete name : The.Guardians.2017.HC.BRRip.XviD.B4ND1T69.avi

Format : AVI

Format/Info : Audio Video Interleave

File size : 1.08 GiB

Duration : 1 h 29 min

Overall bit rate : 1 741 kb/s

Subtitles : Yes…Hardcoded English throughout + file included(HI)

Video

ID : 0

Format : MPEG-4 Visual

Format profile : Advanced [email protected]
Format settings, BVOP : 2

Format settings, QPel : No

Format settings, GMC : No warppoints

Format settings, Matrix : Default (H.263)

Codec ID : XVID

Codec ID/Hint : XviD

Duration : 1 h 29 min

Bit rate : 1 600 kb/s

Width : 720 pixels

Height : 304 pixels

Display aspect ratio : 2.35:1

Frame rate : 23.976 (24000/1001) FPS

Color space : YUV

Chroma subsampling : 4:2:0

Bit depth : 8 bits

Scan type : Progressive

Compression mode : Lossy

Bits/(Pixel*Frame) : 0.305

Stream size : 1 020 MiB (92%)

Writing library : XviD 64

Audio

ID : 1

Format : MPEG Audio

Format version : Version 1

Format profile : Layer 3

Codec ID : 55

Codec ID/Hint : MP3

Duration : 1 h 29 min

Bit rate mode : Constant

Bit rate : 128 kb/s

Channel(s) : 2 channels

Sampling rate : 48.0 kHz

Compression mode : Lossy

Stream size : 81.6 MiB (7%)

Alignment : Aligned on interleaves

Interleave, duration : 24 ms (0.58 video frame)

Screenshots:









Please Seed For As Long As Possible

Or At Least 1:1 Ratio…Thanks

Enjoy Peeps

The.Guardians.2017.HC.BRRip.XDownload Torrent Magnet

#TheGuardians2017HCBRRipX