The Girl With The Dragon Tatt Full Torrent Magnet Download

Download Torrent The Girl With The Dragon Tatt Movie Full in HD Result. Movie The Girl With The Dragon Tatt Torrent Download full. Movie The Girl With The Dragon Tatt torrent Magnet Download Full. The Girl With The Dragon Tatt Full Movie Torrent Download And Magnet Download For your PC And Mobiles. Latest Movie The Girl With The Dragon Tatt Download Link In Bottom.

Torrent And Magnet Links Below

Quote:

PLEASE SEED TO MAINTAIN A BALANCED SEEDER:LEECHER RATIO.

COMPARISON BETWEEN OPEN MATTE AND WIDESCREEN:










Code:


MEDIAINFO:

General

Format : Matroska

Format version : Version 4

File size : 1.73 GiB

Duration : 2 h 38 min

Overall bit rate : 1 563 kb/s

Movie name : The Girl With The Dragon Tattoo (2011) [OPEN MATTE] [BluRay 1080p 10bit DD5.1 x265] – Encoded by Thakur

Attachments : The Girl With The Dragon Tattoo (2011).jpg

Video

ID : 1

Format : HEVC

Format/Info : High Efficiency Video Coding

Format profile : Main [email protected]@High

Codec ID : V_MPEGH/ISO/HEVC

Duration : 2 h 38 min

Bit rate : 1 103 kb/s

Width : 1 920 pixels

Height : 1 080 pixels

Display aspect ratio : 16:9

Frame rate mode : Constant

Frame rate : 23.976 (24000/1001) FPS

Color space : YUV

Chroma subsampling : 4:2:0

Bit depth : 10 bits

Bits/(Pixel*Frame) : 0.022

Stream size : 1.22 GiB (71%)

Writing library : x265 3.2+5-gfbe9fef31:[Windows][GCC 9.2.0][64 bit] 10bit

Encoding settings : cpuid=1111039 / frame-threads=3 / numa-pools=8 / wpp / no-pmode / no-pme / no-psnr / no-ssim / log-level=2 / input-csp=1 / input-res=1920×1080 / interlace=0 / total-frames=227473 / level-idc=40 / high-tier=1 / uhd-bd=0 / ref=3 / no-allow-non-conformance / repeat-headers / annexb / aud / hrd / info / hash=0 / no-temporal-layers / no-open-gop / min-keyint=24 / keyint=240 / gop-lookahead=0 / bframes=4 / b-adapt=2 / b-pyramid / bframe-bias=0 / rc-lookahead=25 / lookahead-slices=4 / scenecut=40 / radl=0 / no-splice / no-intra-refresh / ctu=64 / min-cu-size=8 / no-rect / no-amp / max-tu-size=32 / tu-inter-depth=1 / tu-intra-depth=1 / limit-tu=0 / rdoq-level=2 / dynamic-rd=0.00 / no-ssim-rd / signhide / no-tskip / nr-intra=0 / nr-inter=0 / no-constrained-intra / no-strong-intra-smoothing / max-merge=3 / limit-refs=1 / limit-modes / me=1 / subme=3 / merange=35 / temporal-mvp / no-hme / weightp / no-weightb / no-analyze-src-pics / deblock=-3:-3 / no-sao / no-sao-non-deblock / rd=4 / selective-sao=0 / early-skip / rskip / no-fast-intra / no-tskip-fast / no-cu-lossless / b-intra / no-splitrd-skip / rdpenalty=0 / psy-rd=2.00 / psy-rdoq=0.00 / no-rd-refine / no-lossless / cbqpoffs=0 / crqpoffs=0 / rc=crf / crf=22.0 / qcomp=0.60 / qpstep=4 / stats-write=0 / stats-read=0 / vbv-maxrate=18000 / vbv-bufsize=17500 / vbv-init=0.9 / crf-max=0.0 / crf-min=0.0 / ipratio=1.40 / pbratio=1.30 / aq-mode=2 / aq-strength=1.00 / cutree / zone-count=0 / no-strict-cbr / qg-size=32 / no-rc-grain / qpmax=69 / qpmin=0 / no-const-vbv / sar=0 / overscan=0 / videoformat=5 / range=0 / colorprim=1 / transfer=2 / colormatrix=1 / chromaloc=0 / display-window=0 / cll=0,0 / min-luma=0 / max-luma=1023 / log2-max-poc-lsb=8 / vui-timing-info / vui-hrd-info / slices=1 / no-opt-qp-pps / no-opt-ref-list-length-pps / no-multi-pass-opt-rps / scenecut-bias=0.05 / no-opt-cu-delta-qp / no-aq-motion / no-hdr / no-hdr-opt / no-dhdr10-opt / no-idr-recovery-sei / analysis-reuse-level=5 / scale-factor=0 / refine-intra=0 / refine-inter=0 / refine-mv=1 / refine-ctu-distortion=0 / no-limit-sao / ctu-info=0 / no-lowpass-dct / refine-analysis-type=0 / copy-pic=1 / max-ausize-factor=1.0 / no-dynamic-refine / no-single-sei / no-hevc-aq / no-svt / no-field / qp-adaptation-range=1.00

Default : Yes

Forced : No

Color range : Limited

Color primaries : BT.709

Matrix coefficients : BT.709

Audio

ID : 2

Format : AC-3

Format/Info : Audio Coding 3

Commercial name : Dolby Digital

Codec ID : A_AC3

Duration : 2 h 38 min

Bit rate mode : Constant

Bit rate : 448 kb/s

Channel(s) : 6 channels

Channel layout : L R C LFE Ls Rs

Sampling rate : 48.0 kHz

Frame rate : 31.250 FPS (1536 SPF)

Compression mode : Lossy

Stream size : 507 MiB (29%)

Title : Dolby Digital 5.1 448kbps – Encoded by Thakur

Language : English

Service kind : Complete Main

Default : Yes

Forced : No

Text #1

ID : 3

Format : VobSub

Muxing mode : zlib

Codec ID : S_VOBSUB

Codec ID/Info : Picture based subtitle format used on DVDs

Duration : 2 h 31 min

Bit rate : 9 101 b/s

Count of elements : 1647

Stream size : 9.87 MiB (1%)

Title : VobSub – Encoded by Thakur

Language : English

Default : No

Forced : No

Text #2

ID : 4

Format : VobSub

Muxing mode : zlib

Codec ID : S_VOBSUB

Codec ID/Info : Picture based subtitle format used on DVDs

Duration : 2 h 37 min

Bit rate : 7 662 b/s

Count of elements : 1999

Stream size : 8.63 MiB (0%)

Title : VobSub [SDH] – Encoded by Thakur

Language : English

Default : No

Forced : No

Text #3

ID : 5

Format : UTF-8

Codec ID : S_TEXT/UTF8

Codec ID/Info : UTF-8 Plain Text

Duration : 2 h 32 min

Bit rate : 55 b/s

Count of elements : 1649

Stream size : 61.8 KiB (0%)

Title : SRT – Encoded by Thakur

Language : English

Default : Yes

Forced : No

Menu

00:00:00.000 : en:Blomkvist’s Trial

00:09:53.884 : en:Henrik Vanger

00:22:05.699 : en:A New Guardian

00:28:24.786 : en:Vanger Family History

00:38:09.745 : en:Business Transaction

00:48:00.919 : en:Rape

00:55:07.345 : en:Revenge

01:01:06.204 : en:Blomkvist ans Wasp

01:09:22.032 : en:Religious Murders

01:16:12.859 : en:Blomkvist’s Girlfriend

01:23:27.711 : en:Nazi Killings

01:32:49.730 : en:Father and Son

01:41:35.005 : en:The Chase

01:58:54.210 : en:Two Anitas

02:14:42.532 : en:Wennerstrom

02:23:15.837 : en:End Credits

The Girl With The Dragon TattDownload Torrent Magnet

#Girl #Dragon #Tatt