The.Fall.2006.iTA.ENG.AC3.SUB Full Torrent Magnet Download

Download Torrent The.Fall.2006.iTA.ENG.AC3.SUB Movie Full in HD Result. Movie The.Fall.2006.iTA.ENG.AC3.SUB Torrent Download full. Movie The.Fall.2006.iTA.ENG.AC3.SUB torrent Magnet Download Full. The.Fall.2006.iTA.ENG.AC3.SUB Full Movie Torrent Download And Magnet Download For your PC And Mobiles. Latest Movie The.Fall.2006.iTA.ENG.AC3.SUB Download Link In Bottom.

Torrent And Magnet Links Below


The Fall


Titolo originale: The Fall

Genere: Avventura, Drammatico, Fantasy

Anno: 2006

Regia: Tarsem Singh

Attori: Lee Pace, Catinca Untaru, Justine Waddell, Kim Uylenbroek, Sean Gilder, Daniel Caltagirone, Marcus Wesley, Robin Smith, Leo Bill, Jeetu Verma, Julian Bleach

Paese: India, USA

Durata: 117 min

Sceneggiatura: Dan Gilroy, Nico Soultanakis, Tarsem Singh

Musiche: Krishna Levy

Produzione: Googly Films, Absolute Entertainment (II), Deep Films, Radical Media, Tree Top Films Inc.


The Fall, film d’avventura diretto da Tarsem Singh, racconta la storia di Roy Walker (Lee Pace), uno stunt-man che, dopo una brutta caduta sul lavoro, viene ricoverato in ospedale con una paralisi alle gambe. Qui conosce Alexandria (Catinca Untaru), una bambina di origini romene alla quale si è rotto il braccio mentre stava raccogliendo delle arance. L’uomo, per tenerle compagnia, le racconta la storia di Alessandro il Grande e le dice che se tornerà il giorno dopo le narrerà un’altra entusiasmante novella.

Quando la mattina seguente la ragazzina si presenta nella sua stanza, lui le racconta di una fantastica avventura con cinque protagonisti: l’ex servitore africano Otta Benga (Marcus Wesley), ora arciere; Charles Darwin (Leo Bill) con la scimmietta Wallace; Luigi (Robin Smith), molto preparato su ogni tipo di ordigno; un guerriero indiano (Jeetu Verma) e il Bandito Mascherato (Pace). La missione comune è far fuori Odious (Daniel Caltagirone), un governatore spagnolo con il quale ognuno di loro ha un conto in sospeso. Ogni giorno Roy le racconta un pezzo di storia e il loro legame diventa sempre più forte. Peccato che quelle di Walker siano intenzioni tutt’altro che disinteressate…




General

Unique ID : 227946595766156067402732752585241958550 (0xAB7CEADE0CDA5C4E850CA8213A809896)

Complete name : The.Fall.2006.iTA.ENG.AC3.SUB.iTA.ENG.BluRay.1080p.x264.jeddak-MIRCrew.mkv

Format : Matroska

Format version : Version 2

File size : 2.57 GiB

Duration : 1 h 56 min

Overall bit rate : 3 156 kb/s

Movie name : The.Fall.2006.iTA.ENG.AC3.SUB.iTA.ENG.BluRay.1080p.x264.jeddak-MIRCrew

Encoded date : UTC 2021-05-21 15:58:43

Writing application : mkvmerge v5.6.0 (‘Kenya Kane’) built on May 27 2012 16:44:04

Writing library : libebml v1.2.3 + libmatroska v1.3.0 / Lavf58.29.100

Video

ID : 1

Format : AVC

Format/Info : Advanced Video Codec

Format profile : [email protected]
Format settings : CABAC / 4 Ref Frames

Format settings, CABAC : Yes

Format settings, Reference : 4 frames

Codec ID : V_MPEG4/ISO/AVC

Duration : 1 h 56 min

Bit rate : 2 300 kb/s

Width : 1 920 pixels

Height : 1 040 pixels

Display aspect ratio : 1.85:1

Frame rate mode : Constant

Frame rate : 24.000 FPS

Color space : YUV

Chroma subsampling : 4:2:0

Bit depth : 8 bits

Scan type : Progressive

Bits/(Pixel*Frame) : 0.048

Stream size : 1.79 GiB (70%)

Title : …::: jeddak MIRCrew :::…

Writing library : x264 core 148

Encoding settings : cabac=1 / ref=3 / deblock=1:-1:-1 / analyse=0x3:0x113 / me=hex / subme=7 / psy=1 / psy_rd=1.00:0.15 / mixed_ref=1 / me_range=16 / chroma_me=1 / trellis=1 / 8x8dct=1 / cqm=0 / deadzone=21,11 / fast_pskip=1 / chroma_qp_offset=-3 / threads=6 / lookahead_threads=1 / sliced_threads=0 / nr=0 / decimate=1 / interlaced=0 / bluray_compat=0 / constrained_intra=0 / bframes=3 / b_pyramid=2 / b_adapt=1 / b_bias=0 / direct=1 / weightb=1 / open_gop=0 / weightp=2 / keyint=240 / keyint_min=24 / scenecut=40 / intra_refresh=0 / rc_lookahead=40 / rc=abr / mbtree=1 / bitrate=2300 / ratetol=1.0 / qcomp=0.60 / qpmin=0 / qpmax=69 / qpstep=4 / vbv_maxrate=62500 / vbv_bufsize=78125 / nal_hrd=none / filler=0 / ip_ratio=1.40 / aq=1:1.00

Default : Yes

Forced : No

Color range : Limited

Color primaries : BT.709

Transfer characteristics : BT.709

Matrix coefficients : BT.709

Audio #1

ID : 2

Format : AC-3

Format/Info : Audio Coding 3

Commercial name : Dolby Digital

Codec ID : A_AC3

Duration : 1 h 56 min

Bit rate mode : Constant

Bit rate : 448 kb/s

Channel(s) : 6 channels

Channel layout : L R C LFE Ls Rs

Sampling rate : 48.0 kHz

Frame rate : 31.250 FPS (1536 SPF)

Compression mode : Lossy

Delay relative to video : -5 ms

Stream size : 374 MiB (14%)

Title : iTA AC3 5.1

Language : Italian

Service kind : Complete Main

Default : Yes

Forced : No

Audio #2

ID : 3

Format : AC-3

Format/Info : Audio Coding 3

Commercial name : Dolby Digital

Codec ID : A_AC3

Duration : 1 h 56 min

Bit rate mode : Constant

Bit rate : 448 kb/s

Channel(s) : 6 channels

Channel layout : L R C LFE Ls Rs

Sampling rate : 48.0 kHz

Frame rate : 31.250 FPS (1536 SPF)

Compression mode : Lossy

Delay relative to video : 3 ms

Stream size : 374 MiB (14%)

Title : ENG AC3 5.1

Language : English

Service kind : Complete Main

Default : No

Forced : No

Duration_Source : General_Duration

Text #1

ID : 4

Format : UTF-8

Codec ID : S_TEXT/UTF8

Codec ID/Info : UTF-8 Plain Text

Title : iTA FORCED

Language : Italian

Default : Yes

Forced : Yes

Text #2

ID : 5

Format : UTF-8

Codec ID : S_TEXT/UTF8

Codec ID/Info : UTF-8 Plain Text

Title : iTA NON UDENTI

Language : Italian

Default : No

Forced : No

Text #3

ID : 6

Format : PGS

Muxing mode : zlib

Codec ID : S_HDMV/PGS

Codec ID/Info : Picture based subtitle format used on BDs/HD-DVDs

Duration : 1 h 50 min

Title : iTA NON UDENTI

Language : Italian

Default : No

Forced : No

Text #4

ID : 7

Format : UTF-8

Codec ID : S_TEXT/UTF8

Codec ID/Info : UTF-8 Plain Text

Title : ENG REGULAR

Language : English

Default : No

Forced : No

Menu

00:00:00.000 : :Capitolo 01

00:13:33.708 : :Capitolo 02

00:28:34.333 : :Capitolo 03

00:43:51.208 : :Capitolo 04

00:59:19.000 : :Capitolo 05

01:12:08.958 : :Capitolo 06

01:28:40.333 : :Capitolo 07

01:42:09.417 : :Capitolo 08

The.Fall.2006.iTA.ENG.AC3.SUBDownload Torrent Magnet

#TheFall2006iTAENGAC3SUB