The.Falcon.and.The.Winter.Sol Full Torrent Magnet Download

Download Torrent The.Falcon.and.The.Winter.Sol Movie Full in HD Result. Movie The.Falcon.and.The.Winter.Sol Torrent Download full. Movie The.Falcon.and.The.Winter.Sol torrent Magnet Download Full. The.Falcon.and.The.Winter.Sol Full Movie Torrent Download And Magnet Download For your PC And Mobiles. Latest Movie The.Falcon.and.The.Winter.Sol Download Link In Bottom.

Torrent And Magnet Links Below

The.Falcon.and.The.Winter.Soldier.S01E06.1080p.10bit.DSNP.WEBRip.[DDP5.1-Hindi+DDP5.1-English].Atmos.MSubs.HEVC~The.PunisheR.mkv

MediaInfos:
General

Unique ID : 17277899809001035468479600993477387213 (0xCFF9A3AF03750FEA39941F2FDD4E3CD)

Complete name : The.Falcon.and.The.Winter.Soldier.S01E06.1080p.10bit.DSNP.WEBRip.[DDP5.1-Hindi+DDP5.1-English].Atmos.MSubs.HEVC~The.PunisheR.mkv

Format : Matroska

Format version : Version 4

File size : 2.06 GiB

Duration : 48 min 43 s

Overall bit rate : 6 054 kb/s

Description : Encoded By – The.PunisheR

Encoded date : UTC 2021-04-23 09:23:41

Writing application : mkvmerge v56.1.0 (‘My Friend’) 64-bit

Writing library : libebml v1.4.2 + libmatroska v1.6.4 / Lavf57.83.100

Video

ID : 1

Format : HEVC

Format/Info : High Efficiency Video Coding

Format profile : Main [email protected]@Main

Codec ID : V_MPEGH/ISO/HEVC

Duration : 48 min 43 s

Bit rate : 5 091 kb/s

Width : 1 920 pixels

Height : 804 pixels

Display aspect ratio : 2.40:1

Frame rate mode : Constant

Frame rate : 24.000 FPS

Color space : YUV

Chroma subsampling : 4:2:0

Bit depth : 10 bits

Bits/(Pixel*Frame) : 0.137

Stream size : 1.73 GiB (84%)

Title : 1080p / 10bit / DSNP / WEBRip / HEVC ~ The.PunisheR

Language : English

Default : Yes

Forced : No

Color range : Limited

Color primaries : BT.709

Transfer characteristics : BT.709

Matrix coefficients : BT.709

Audio #1

ID : 2

Format : E-AC-3

Format/Info : Enhanced AC-3

Commercial name : Dolby Digital Plus

Codec ID : A_EAC3

Duration : 48 min 43 s

Bit rate mode : Constant

Bit rate : 192 kb/s

Channel(s) : 6 channels

Channel layout : L R C LFE Ls Rs

Sampling rate : 48.0 kHz

Frame rate : 31.250 FPS (1536 SPF)

Compression mode : Lossy

Stream size : 66.9 MiB (3%)

Title : DD+ 5.1 / 192kbps / 48kHz ~ The.PunisheR

Language : Hindi

Service kind : Complete Main

Default : Yes

Forced : Yes

Audio #2

ID : 3

Format : E-AC-3 JOC

Format/Info : Enhanced AC-3 with Joint Object Coding

Commercial name : Dolby Digital Plus with Dolby Atmos

Codec ID : A_EAC3

Duration : 48 min 40 s

Bit rate mode : Constant

Bit rate : 768 kb/s

Channel(s) : 6 channels

Channel layout : L R C LFE Ls Rs

Sampling rate : 48.0 kHz

Frame rate : 31.250 FPS (1536 SPF)

Compression mode : Lossy

Delay relative to video : 3 s 5 ms

Stream size : 267 MiB (13%)

Title : DD+ 5.1 / Atmos / 768kbps / 48kHz ~ The.PunisheR

Language : English

Service kind : Complete Main

Default : No

Forced : No

Complexity index : 16

Number of dynamic objects : 15

Bed channel count : 1 channel

Bed channel configuration : LFE

Text #1

ID : 4

Format : UTF-8

Codec ID : S_TEXT/UTF8

Codec ID/Info : UTF-8 Plain Text

Duration : 46 min 7 s

Bit rate : 47 b/s

Count of elements : 553

Stream size : 16.0 KiB (0%)

Title : English-SRT

Language : English

Default : No

Forced : No

Text #2

ID : 5

Format : UTF-8

Codec ID : S_TEXT/UTF8

Codec ID/Info : UTF-8 Plain Text

Duration : 48 min 37 s

Bit rate : 37 b/s

Count of elements : 406

Stream size : 13.2 KiB (0%)

Title : Indonesian-SRT

Language : Indonesian

Default : No

Forced : No

Screenshots:





Quote:


Enjoy 😀

The.Falcon.and.The.Winter.SolDownload Torrent Magnet

#TheFalconandTheWinterSol