The.Falcon.and.The.Winter.Sol Full Torrent Magnet Download

Download Torrent The.Falcon.and.The.Winter.Sol Movie Full in HD Result. Movie The.Falcon.and.The.Winter.Sol Torrent Download full. Movie The.Falcon.and.The.Winter.Sol torrent Magnet Download Full. The.Falcon.and.The.Winter.Sol Full Movie Torrent Download And Magnet Download For your PC And Mobiles. Latest Movie The.Falcon.and.The.Winter.Sol Download Link In Bottom.

Torrent And Magnet Links Below

Code:

fo «
Video

ID : 1

Format : AVC

Format/Info : Advanced Video Codec

Format profile : [email protected]
Format settings : CABAC / 4 Ref Frames

Format settings, CABAC : Yes

Format settings, Reference frames : 4 frames

Codec ID : V_MPEG4/ISO/AVC

Duration : 48 min 40 s

Bit rate mode : Variable

Bit rate : 7 277 kb/s

Maximum bit rate : 12.7 Mb/s

Width : 1 920 pixels

Height : 1 080 pixels

Display aspect ratio : 16:9

Frame rate mode : Constant

Frame rate : 24.000 FPS

Color space : YUV

Chroma subsampling : 4:2:0

Bit depth : 8 bits

Scan type : Progressive

Bits/(Pixel*Frame) : 0.146

Stream size : 2.47 GiB (90%)

Default : Yes

Forced : No

Color range : Limited

Color primaries : BT.709

Transfer characteristics : BT.709

Matrix coefficients : BT.709

Audio

ID : 2

Format : E-AC-3 JOC

Format/Info : Enhanced AC-3 with Joint Object Coding

Commercial name : Dolby Digital Plus with Dolby Atmos

Codec ID : A_EAC3

Duration : 48 min 40 s

Bit rate mode : Constant

Bit rate : 768 kb/s

Channel(s) : 6 channels

Channel layout : L R C LFE Ls Rs

Sampling rate : 48.0 kHz

Frame rate : 31.250 FPS (1536 SPF)

Compression mode : Lossy

Stream size : 267 MiB (10%)

Title : English

Language : English

Service kind : Complete Main

Default : Yes

Forced : No

Complexity index : 16

Number of dynamic objects : 15

Bed channel count : 1 channel

Bed channel configuration : LFE

Text #1

ID : 3

Format : UTF-8

Codec ID : S_TEXT/UTF8

Codec ID/Info : UTF-8 Plain Text

Duration : 48 min 37 s

Bit rate : 31 b/s

Count of elements : 286

Stream size : 11.3 KiB (0%)

Title : Dansk

Language : Danish

Default : No

Forced : No

Text #2

ID : 4

Format : UTF-8

Codec ID : S_TEXT/UTF8

Codec ID/Info : UTF-8 Plain Text

Duration : 48 min 37 s

Bit rate : 33 b/s

Count of elements : 377

Stream size : 11.8 KiB (0%)

Title : Deutsch

Language : German

Default : No

Forced : No

Text #3

ID : 5

Format : UTF-8

Codec ID : S_TEXT/UTF8

Codec ID/Info : UTF-8 Plain Text

Duration : 46 min 7 s

Bit rate : 47 b/s

Count of elements : 553

Stream size : 16.0 KiB (0%)

Title : English (SDH)

Language : English

Default : No

Forced : No

Text #4

ID : 6

Format : UTF-8

Codec ID : S_TEXT/UTF8

Codec ID/Info : UTF-8 Plain Text

Duration : 48 min 37 s

Bit rate : 34 b/s

Count of elements : 410

Stream size : 12.4 KiB (0%)

Title : Español

Language : Spanish

Default : No

Forced : No

Text #5

ID : 7

Format : UTF-8

Codec ID : S_TEXT/UTF8

Codec ID/Info : UTF-8 Plain Text

Duration : 48 min 37 s

Bit rate : 34 b/s

Count of elements : 411

Stream size : 12.1 KiB (0%)

Title : Español (Latinoamericano)

Language : Spanish

Default : No

Forced : No

Text #6

ID : 8

Format : UTF-8

Codec ID : S_TEXT/UTF8

Codec ID/Info : UTF-8 Plain Text

Duration : 48 min 37 s

Bit rate : 31 b/s

Count of elements : 399

Stream size : 11.4 KiB (0%)

Title : Français

Language : French

Default : No

Forced : No

Text #7

ID : 9

Format : UTF-8

Codec ID : S_TEXT/UTF8

Codec ID/Info : UTF-8 Plain Text

Duration : 45 min 54 s

Bit rate : 33 b/s

Count of elements : 403

Stream size : 11.4 KiB (0%)

Title : Français (Canadien)

Language : French

Default : No

Forced : No

Text #8

ID : 10

Format : UTF-8

Codec ID : S_TEXT/UTF8

Codec ID/Info : UTF-8 Plain Text

Duration : 48 min 37 s

Bit rate : 31 b/s

Count of elements : 408

Stream size : 11.3 KiB (0%)

Title : Italiano

Language : Italian

Default : No

Forced : No

Text #9

ID : 11

Format : UTF-8

Codec ID : S_TEXT/UTF8

Codec ID/Info : UTF-8 Plain Text

Duration : 48 min 37 s

Bit rate : 34 b/s

Count of elements : 325

Stream size : 12.4 KiB (0%)

Title : Nederlands

Language : Dutch

Default : No

Forced : No

Text #10

ID : 12

Format : UTF-8

Codec ID : S_TEXT/UTF8

Codec ID/Info : UTF-8 Plain Text

Duration : 48 min 37 s

Bit rate : 31 b/s

Count of elements : 408

Stream size : 11.3 KiB (0%)

Title : Norsk

Language : Norwegian

Default : No

Forced : No

Text #11

ID : 13

Format : UTF-8

Codec ID : S_TEXT/UTF8

Codec ID/Info : UTF-8 Plain Text

Duration : 48 min 37 s

Bit rate : 34 b/s

Count of elements : 406

Stream size : 12.2 KiB (0%)

Title : Português

Language : Portuguese

Default : No

Forced : No

Text #12

ID : 14

Format : UTF-8

Codec ID : S_TEXT/UTF8

Codec ID/Info : UTF-8 Plain Text

Duration : 48 min 37 s

Bit rate : 34 b/s

Count of elements : 411

Stream size : 12.3 KiB (0%)

Title : Português (Brasil)

Language : Portuguese

Default : No

Forced : No

Text #13

ID : 15

Format : UTF-8

Codec ID : S_TEXT/UTF8

Codec ID/Info : UTF-8 Plain Text

Duration : 48 min 37 s

Bit rate : 29 b/s

Count of elements : 406

Stream size : 10.6 KiB (0%)

Title : Suomi

Language : Finnish

Default : No

Forced : No

Text #14

ID : 16

Format : UTF-8

Codec ID : S_TEXT/UTF8

Codec ID/Info : UTF-8 Plain Text

Duration : 48 min 37 s

Bit rate : 33 b/s

Count of elements : 343

Stream size : 11.9 KiB (0%)

Title : Svenska

Language : Swedish

Default : No

Forced : No

The.Falcon.and.The.Winter.SolDownload Torrent Magnet

#TheFalconandTheWinterSol