The.Falcon.and.the.Winter.Sol Full Torrent Magnet Download

Download Torrent The.Falcon.and.the.Winter.Sol Movie Full in HD Result. Movie The.Falcon.and.the.Winter.Sol Torrent Download full. Movie The.Falcon.and.the.Winter.Sol torrent Magnet Download Full. The.Falcon.and.the.Winter.Sol Full Movie Torrent Download And Magnet Download For your PC And Mobiles. Latest Movie The.Falcon.and.the.Winter.Sol Download Link In Bottom.

Torrent And Magnet Links Below

Code:

«
Video

ID : 1

Format : AVC

Format/Info : Advanced Video Codec

Format profile : [email protected]
Format settings : CABAC / 5 Ref Frames

Format settings, CABAC : Yes

Format settings, Reference frames : 5 frames

Codec ID : avc1

Codec ID/Info : Advanced Video Coding

Duration : 48 min 40 s

Bit rate : 1 040 kb/s

Nominal bit rate : 1 100 kb/s

Width : 720 pixels

Height : 302 pixels

Display aspect ratio : 2.40:1

Original display aspect ratio : 2.40:1

Frame rate mode : Constant

Frame rate : 24.000 FPS

Color space : YUV

Chroma subsampling : 4:2:0

Bit depth : 8 bits

Scan type : Progressive

Bits/(Pixel*Frame) : 0.199

Stream size : 362 MiB (80%)

Title : The.Falcon.and.the.Winter.Soldier.S01E06.WEBRip.x264-ION10

Writing library : x264 core 148 r2795M aaa9aa8

Encoding settings : cabac=1 / ref=5 / deblock=1:-1:-1 / analyse=0x3:0x113 / me=umh / subme=9 / psy=1 / psy_rd=1.00:0.15 / mixed_ref=1 / me_range=16 / chroma_me=1 / trellis=2 / 8x8dct=1 / cqm=0 / deadzone=21,11 / fast_pskip=1 / chroma_qp_offset=-3 / threads=24 / lookahead_threads=2 / sliced_threads=0 / nr=0 / decimate=1 / interlaced=0 / bluray_compat=0 / constrained_intra=0 / bframes=3 / b_pyramid=2 / b_adapt=2 / b_bias=0 / direct=3 / weightb=1 / open_gop=0 / weightp=2 / keyint=250 / keyint_min=24 / scenecut=40 / intra_refresh=0 / rc_lookahead=50 / rc=abr / mbtree=1 / bitrate=1100 / ratetol=1.0 / qcomp=0.60 / qpmin=0 / qpmax=69 / qpstep=4 / ip_ratio=1.40 / aq=1:1.00

Encoded date : UTC 2021-04-23 06:45:30

Tagged date : UTC 2021-04-23 06:45:30

Codec configuration box : avcC

Audio

ID : 2

Format : AAC LC

Format/Info : Advanced Audio Codec Low Complexity

Codec ID : mp4a-40-2

Duration : 48 min 40 s

Bit rate mode : Constant

Bit rate : 256 kb/s

Channel(s) : 2 channels

Channel layout : L R

Sampling rate : 48.0 kHz

Frame rate : 46.875 FPS (1024 SPF)

Compression mode : Lossy

Stream size : 89.1 MiB (20%)

Title : The.Falcon.and.the.Winter.Soldier.S01E06.WEBRip.x264-ION10

Language : English

Default : Yes

Alternate group : 1

Encoded date : UTC 2021-04-23 06:45:30

Tagged date : UTC 2021-04-23 06:45:30

The.Falcon.and.the.Winter.SolDownload Torrent Magnet

#TheFalconandtheWinterSol