The.Falcon.and.The.Winter.Sol Full Torrent Magnet Download

Download Torrent The.Falcon.and.The.Winter.Sol Movie Full in HD Result. Movie The.Falcon.and.The.Winter.Sol Torrent Download full. Movie The.Falcon.and.The.Winter.Sol torrent Magnet Download Full. The.Falcon.and.The.Winter.Sol Full Movie Torrent Download And Magnet Download For your PC And Mobiles. Latest Movie The.Falcon.and.The.Winter.Sol Download Link In Bottom.

Torrent And Magnet Links Below

The.Falcon.and.The.Winter.Soldier.S01E06.WEB-DL.XviD.B4ND1T69

Stars: Anthony Mackie, Sebastian Stan, Wyatt Russell

Plot/Story:

One World, One People

Sam Wilson aka The Falcon and Bucky Barnes aka The Winter Soldier team up on a global adventure.

General

Complete name : The.Falcon.and.The.Winter.Soldier.S01E06.WEB-DL.XviD.B4ND1T69.avi

Format : AVI

Format/Info : Audio Video Interleave

File size : 464 MiB

Duration : 48 min 40 s

Overall bit rate : 1 332 kb/s

Subtitles : Yes…Hardcoded for non-English parts + file included(HI)

Video

ID : 0

Format : MPEG-4 Visual

Format profile : Advanced [email protected]
Format settings, BVOP : 2

Format settings, QPel : No

Format settings, GMC : No warppoints

Format settings, Matrix : Default (H.263)

Codec ID : XVID

Codec ID/Hint : XviD
Duration : 48 min 40 s

Bit rate : 1 191 kb/s

Width : 640 pixels

Height : 272 pixels

Display aspect ratio : 2.35:1

Frame rate : 24.000 FPS

Color space : YUV

Chroma subsampling : 4:2:0

Bit depth : 8 bits

Scan type : Progressive

Compression mode : Lossy

Bits/(Pixel*Frame) : 0.285

Stream size : 415 MiB (89%)

Writing library : XviD 64

Audio

ID : 1

Format : MPEG Audio

Format version : Version 1

Format profile : Layer 3

Codec ID : 55

Codec ID/Hint : MP3

Duration : 48 min 40 s

Bit rate mode : Constant

Bit rate : 128 kb/s

Channel(s) : 2 channels

Sampling rate : 48.0 kHz

Compression mode : Lossy

Stream size : 44.6 MiB (10%)

Alignment : Aligned on interleaves

Interleave, duration : 24 ms (0.58 video frame)

Screenshots:






Please Seed For As Long As Possible

Or At Least 1:1 Ratio…Thanks

Enjoy Peeps

The.Falcon.and.The.Winter.SolDownload Torrent Magnet

#TheFalconandTheWinterSol