The.Falcon.and.the.Winter.Sol Full Torrent Magnet Download

Download Torrent The.Falcon.and.the.Winter.Sol Movie Full in HD Result. Movie The.Falcon.and.the.Winter.Sol Torrent Download full. Movie The.Falcon.and.the.Winter.Sol torrent Magnet Download Full. The.Falcon.and.the.Winter.Sol Full Movie Torrent Download And Magnet Download For your PC And Mobiles. Latest Movie The.Falcon.and.the.Winter.Sol Download Link In Bottom.

Torrent And Magnet Links Below

Title

Info Plot

Titolo originale The Falcon and the Winter Soldier

Paese Stati Uniti d’America

Anno 2021 – in produzione

Formato miniserie TV

Genere azione, supereroi

Puntate 6

Lingua originale inglese

Rapporto 16:9

Un mese dopo gli eventi di Avengers: Endgame, Sam Wilson e Bucky Barnes collaborano in un’avventura globale che metterà alla prova le loro abilità e la loro pazienza.

Images


Report

Code:

General

Unique ID : 20708855915966354080564504678006552763 (0xF94616D2EF170952CB35A682D2078BB)

Complete name : C:UsersAdministratorVideosThe Falcon And The Winter Soldier S01The.Falcon.and.the.Winter.Soldier.S01E01.New.World.Order.2160p.DSNP.WEBMux.HEVC.ITA.ENG.DD5.1.x265-BlackBit.mkv

Format : Matroska

Format version : Version 4

File size : 6.63 GiB

Duration : 47 min 15 s

Overall bit rate : 20.1 Mb/s

Encoded date : UTC 2021-03-19 09:35:29

Writing application : mkvmerge v55.0.0 (‘Waiting For Space’) 64-bit

Writing library : libebml v1.4.2 + libmatroska v1.6.4

Video

ID : 1

Format : HEVC

Format/Info : High Efficiency Video Coding

Format profile : [email protected]@High

Codec ID : V_MPEGH/ISO/HEVC

Duration : 47 min 15 s

Bit rate : 19.1 Mb/s

Width : 3 840 pixels

Height : 2 160 pixels

Display aspect ratio : 16:9

Frame rate mode : Constant

Frame rate : 24.000 FPS

Color space : YUV

Chroma subsampling : 4:2:0

Bit depth : 8 bits

Bits/(Pixel*Frame) : 0.096

Stream size : 6.29 GiB (95%)

Writing library : x265 3.5_RC2:[Linux][GCC 7.5.0][64 bit] 8bit+10bit+12bit

Encoding settings : cpuid=1111039 / frame-threads=6 / wpp / no-pmode / no-pme / no-psnr / no-ssim / log-level=2 / input-csp=1 / input-res=3840×2160 / interlace=0 / total-frames=0 / level-idc=50 / high-tier=1 / uhd-bd=0 / ref=2 / no-allow-non-conformance / repeat-headers / annexb / no-aud / no-hrd / info / hash=0 / no-temporal-layers / no-open-gop / min-keyint=48 / keyint=48 / gop-lookahead=0 / bframes=4 / b-adapt=0 / b-pyramid / bframe-bias=0 / rc-lookahead=48 / lookahead-slices=8 / scenecut=0 / hist-scenecut=0 / radl=0 / no-splice / no-intra-refresh / ctu=32 / min-cu-size=8 / no-rect / no-amp / max-tu-size=16 / tu-inter-depth=2 / tu-intra-depth=2 / limit-tu=0 / rdoq-level=1 / dynamic-rd=0.00 / no-ssim-rd / signhide / no-tskip / nr-intra=0 / nr-inter=0 / no-constrained-intra / no-strong-intra-smoothing / max-merge=3 / limit-refs=1 / no-limit-modes / me=1 / subme=2 / merange=44 / temporal-mvp / no-frame-dup / no-hme / weightp / no-weightb / no-analyze-src-pics / deblock=0:0 / no-sao / no-sao-non-deblock / rd=4 / selective-sao=0 / early-skip / rskip / no-fast-intra / no-tskip-fast / no-cu-lossless / b-intra / no-splitrd-skip / rdpenalty=1 / psy-rd=1.60 / psy-rdoq=5.00 / no-rd-refine / no-lossless / cbqpoffs=0 / crqpoffs=0 / rc=abr / bitrate=20000 / qcomp=0.75 / qpstep=4 / stats-write=0 / stats-read=0 / vbv-maxrate=24000 / vbv-bufsize=40000 / vbv-init=0.9 / ipratio=1.40 / pbratio=1.30 / aq-mode=3 / aq-strength=1.00 / no-cutree / zone-count=0 / no-strict-cbr / qg-size=32 / no-rc-grain / qpmax=69 / qpmin=0 / no-const-vbv / sar=1 / overscan=0 / videoformat=5 / range=0 / colorprim=1 / transfer=1 / colormatrix=1 / chromaloc=0 / display-window=0 / cll=0,0 / min-luma=0 / max-luma=255 / log2-max-poc-lsb=8 / vui-timing-info / vui-hrd-info / slices=1 / no-opt-qp-pps / no-opt-ref-list-length-pps / no-multi-pass-opt-rps / scenecut-bias=0.00 / hist-threshold=0.01 / no-opt-cu-delta-qp / no-aq-motion / no-hdr10 / no-hdr10-opt / no-dhdr10-opt / no-idr-recovery-sei / analysis-reuse-level=0 / analysis-save-reuse-level=0 / analysis-load-reuse-level=0 / scale-factor=0 / refine-intra=0 / refine-inter=0 / refine-mv=1 / refine-ctu-distortion=0 / no-limit-sao / ctu-info=0 / no-lowpass-dct / refine-analysis-type=0 / copy-pic=1 / max-ausize-factor=1.0 / no-dynamic-refine / no-single-sei / no-hevc-aq / no-svt / no-field / qp-adaptation-range=1.00 / no-scenecut-aware-qpconformance-window-offsets / right=0 / bottom=0

Default : Yes

Forced : Yes

Color range : Limited

Color primaries : BT.709

Transfer characteristics : BT.709

Matrix coefficients : BT.709

Audio #1

ID : 2

Format : AC-3

Format/Info : Audio Coding 3

Commercial name : Dolby Digital

Codec ID : A_AC3

Duration : 47 min 15 s

Bit rate mode : Constant

Bit rate : 256 kb/s

Channel(s) : 6 channels

Channel layout : L R C LFE Ls Rs

Sampling rate : 48.0 kHz

Frame rate : 31.250 FPS (1536 SPF)

Compression mode : Lossy

Stream size : 86.5 MiB (1%)

Language : Italian

Service kind : Complete Main

Default : Yes

Forced : Yes

Audio #2

ID : 3

Format : E-AC-3 JOC

Format/Info : Enhanced AC-3 with Joint Object Coding

Commercial name : Dolby Digital Plus with Dolby Atmos

Codec ID : A_EAC3

Duration : 47 min 15 s

Bit rate mode : Constant

Bit rate : 768 kb/s

Channel(s) : 6 channels

Channel layout : L R C LFE Ls Rs

Sampling rate : 48.0 kHz

Frame rate : 31.250 FPS (1536 SPF)

Compression mode : Lossy

Stream size : 260 MiB (4%)

Title : English

Language : English

Service kind : Complete Main

Default : No

Forced : No

Complexity index : 16

Number of dynamic objects : 15

Bed channel count : 1 channel

Bed channel configuration : LFE

Text #1

ID : 4

Format : UTF-8

Codec ID : S_TEXT/UTF8

Codec ID/Info : UTF-8 Plain Text

Duration : 41 min 9 s

Bit rate : 2 b/s

Count of elements : 31

Stream size : 669 Bytes (0%)

Language : Italian

Default : Yes

Forced : Yes

Text #2

ID : 5

Format : UTF-8

Codec ID : S_TEXT/UTF8

Codec ID/Info : UTF-8 Plain Text

Duration : 45 min 48 s

Bit rate : 47 b/s

Count of elements : 566

Stream size : 16.0 KiB (0%)

Title : Italiano

Language : Italian

Default : No

Forced : No

Text #3

ID : 6

Format : UTF-8

Codec ID : S_TEXT/UTF8

Codec ID/Info : UTF-8 Plain Text

Duration : 42 min 35 s

Bit rate : 66 b/s

Count of elements : 674

Stream size : 20.9 KiB (0%)

Title : English (SDH)

Language : English

Default : No

Forced : No

Good Download

The.Falcon.and.the.Winter.SolDownload Torrent Magnet

#TheFalconandtheWinterSol