The Falcon and The Winter Sol Full Torrent Magnet Download

Download Torrent The Falcon and The Winter Sol Movie Full in HD Result. Movie The Falcon and The Winter Sol Torrent Download full. Movie The Falcon and The Winter Sol torrent Magnet Download Full. The Falcon and The Winter Sol Full Movie Torrent Download And Magnet Download For your PC And Mobiles. Latest Movie The Falcon and The Winter Sol Download Link In Bottom.

Torrent And Magnet Links Below

Media Information

General

Unique ID : 143116739901980519091459404790133737369 (0x6BAB480FDC98956D300219F36EF4C799)

Complete name : The Falcon and The Winter Soldier S01E06 One World One People1080p DSNP WEBrip x265 DDP5 1 Atmos D0ct0rLew[SEV].mkv

Format : Matroska

Format version : Version 4

File size : 1.89 GiB

Duration : 48 min 40 s

Overall bit rate : 5 549 kb/s

Movie name : The Falcon and The Winter Soldier S01E06 One World One People1080p DSNP WEBrip x265 DDP5 1 Atmos D0ct0rLew[SEV]
Encoded date : UTC 2021-04-23 20:38:51

Writing application : mkvmerge v56.1.0 (‘My Friend’) 64-bit

Writing library : libebml v1.4.2 + libmatroska v1.6.4

Attachments : StintUltraCondensed-lL0e.ttf

Video

ID : 1

Format : HEVC

Format/Info : High Efficiency Video Coding

Format profile : Main [email protected]@Main

Codec ID : V_MPEGH/ISO/HEVC

Duration : 48 min 40 s

Bit rate : 4 777 kb/s

Width : 1 920 pixels

Height : 1 080 pixels

Display aspect ratio : 16:9

Frame rate mode : Constant

Frame rate : 24.000 FPS

Color space : YUV

Chroma subsampling : 4:2:0

Bit depth : 10 bits

Bits/(Pixel*Frame) : 0.096

Stream size : 1.62 GiB (86%)

Writing library : x265 3.5+9-bf91444e0:[Windows][MSVC 1928][64 bit] 10bit

Encoding settings : cpuid=1049583 / frame-threads=3 / numa-pools=8 / wpp / no-pmode / no-pme / no-psnr / no-ssim / log-level=2 / input-csp=1 / input-res=1920×1080 / interlace=0 / total-frames=1440 / level-idc=0 / high-tier=1 / uhd-bd=0 / ref=4 / no-allow-non-conformance / no-repeat-headers / annexb / no-aud / no-eob / no-eos / no-hrd / info / hash=0 / no-temporal-layers / open-gop / min-keyint=24 / keyint=240 / gop-lookahead=0 / bframes=16 / b-adapt=2 / b-pyramid / bframe-bias=0 / rc-lookahead=90 / lookahead-slices=4 / scenecut=40 / hist-scenecut=0 / radl=0 / no-splice / no-intra-refresh / ctu=64 / min-cu-size=8 / no-rect / no-amp / max-tu-size=32 / tu-inter-depth=4 / tu-intra-depth=4 / limit-tu=0 / rdoq-level=2 / dynamic-rd=0.00 / no-ssim-rd / signhide / no-tskip / nr-intra=0 / nr-inter=0 / no-constrained-intra / no-strong-intra-smoothing / max-merge=5 / limit-refs=0 / limit-modes / me=3 / subme=7 / merange=92 / temporal-mvp / no-frame-dup / no-hme / weightp / no-weightb / no-analyze-src-pics / deblock=0:0 / sao / no-sao-non-deblock / rd=4 / selective-sao=4 / no-early-skip / rskip / no-fast-intra / no-tskip-fast / no-cu-lossless / no-b-intra / no-splitrd-skip / rdpenalty=0 / psy-rd=1.10 / psy-rdoq=1.00 / no-rd-refine / no-lossless / cbqpoffs=0 / crqpoffs=0 / rc=crf / crf=16.6 / qcomp=0.60 / qpstep=4 / stats-write=0 / stats-read=0 / ipratio=1.40 / pbratio=1.30 / aq-mode=4 / aq-strength=1.00 / cutree / zone-count=0 / no-strict-cbr / qg-size=32 / no-rc-grain / qpmax=69 / qpmin=0 / no-const-vbv / sar=1 / overscan=0 / videoformat=5 / range=0 / colorprim=2 / transfer=2 / colormatrix=2 / chromaloc=0 / display-window=0 / cll=0,0 / min-luma=0 / max-luma=1023 / log2-max-poc-lsb=8 / vui-timing-info / vui-hrd-info / slices=1 / no-opt-qp-pps / no-opt-ref-list-length-pps / no-multi-pass-opt-rps / scenecut-bias=0.05 / hist-threshold=0.03 / no-opt-cu-delta-qp / no-aq-motion / no-hdr10 / no-hdr10-opt / no-dhdr10-opt / no-idr-recovery-sei / analysis-reuse-level=0 / analysis-save-reuse-level=0 / analysis-load-reuse-level=0 / scale-factor=0 / refine-intra=0 / refine-inter=0 / refine-mv=1 / refine-ctu-distortion=0 / no-limit-sao / ctu-info=0 / no-lowpass-dct / refine-analysis-type=0 / copy-pic=1 / max-ausize-factor=1.0 / no-dynamic-refine / no-single-sei / no-hevc-aq / no-svt / no-field / qp-adaptation-range=1.00 / scenecut-aware-qp=0conformance-window-offsets / right=0 / bottom=0 / decoder-max-rate=0 / no-vbv-live-multi-pass

Default : Yes

Forced : No

Audio

ID : 2

Format : E-AC-3 JOC

Format/Info : Enhanced AC-3 with Joint Object Coding

Commercial name : Dolby Digital Plus with Dolby Atmos

Codec ID : A_EAC3

Duration : 48 min 40 s

Bit rate mode : Constant

Bit rate : 768 kb/s

Channel(s) : 6 channels

Channel layout : L R C LFE Ls Rs

Sampling rate : 48.0 kHz

Frame rate : 31.250 FPS (1536 SPF)

Compression mode : Lossy

Stream size : 267 MiB (14%)

Title : English

Language : English

Service kind : Complete Main

Default : Yes

Forced : No

Complexity index : 16

Number of dynamic objects : 15

Bed channel count : 1 channel

Bed channel configuration : LFE

Text #1

ID : 3

Format : ASS

Codec ID : S_TEXT/ASS

Codec ID/Info : Advanced Sub Station Alpha

Duration : 45 min 54 s

Bit rate : 88 b/s

Count of elements : 578

Compression mode : Lossless

Stream size : 29.7 KiB (0%)

Language : English

Default : Yes

Forced : No

Text #2

ID : 4

Format : UTF-8

Codec ID : S_TEXT/UTF8

Codec ID/Info : UTF-8 Plain Text

Duration : 48 min 37 s

Bit rate : 31 b/s

Count of elements : 286

Stream size : 11.3 KiB (0%)

Title : Dansk

Language : Danish

Default : No

Forced : No

Text #3

ID : 5

Format : UTF-8

Codec ID : S_TEXT/UTF8

Codec ID/Info : UTF-8 Plain Text

Duration : 48 min 37 s

Bit rate : 33 b/s

Count of elements : 377

Stream size : 11.8 KiB (0%)

Title : Deutsch

Language : German

Default : No

Forced : No

Text #4

ID : 6

Format : UTF-8

Codec ID : S_TEXT/UTF8

Codec ID/Info : UTF-8 Plain Text

Duration : 48 min 37 s

Bit rate : 34 b/s

Count of elements : 410

Stream size : 12.4 KiB (0%)

Title : Español

Language : Spanish

Default : No

Forced : No

Text #5

ID : 7

Format : UTF-8

Codec ID : S_TEXT/UTF8

Codec ID/Info : UTF-8 Plain Text

Duration : 48 min 37 s

Bit rate : 34 b/s

Count of elements : 411

Stream size : 12.1 KiB (0%)

Title : Español (Latinoamericano)

Language : Spanish

Default : No

Forced : No

Text #6

ID : 8

Format : UTF-8

Codec ID : S_TEXT/UTF8

Codec ID/Info : UTF-8 Plain Text

Duration : 48 min 37 s

Bit rate : 31 b/s

Count of elements : 399

Stream size : 11.4 KiB (0%)

Title : Français

Language : French

Default : No

Forced : No

Text #7

ID : 9

Format : UTF-8

Codec ID : S_TEXT/UTF8

Codec ID/Info : UTF-8 Plain Text

Duration : 45 min 54 s

Bit rate : 33 b/s

Count of elements : 403

Stream size : 11.4 KiB (0%)

Title : Français (Canadien)

Language : French

Default : No

Forced : No

Text #8

ID : 10

Format : UTF-8

Codec ID : S_TEXT/UTF8

Codec ID/Info : UTF-8 Plain Text

Duration : 48 min 37 s

Bit rate : 31 b/s

Count of elements : 408

Stream size : 11.3 KiB (0%)

Title : Italiano

Language : Italian

Default : No

Forced : No

Text #9

ID : 11

Format : UTF-8

Codec ID : S_TEXT/UTF8

Codec ID/Info : UTF-8 Plain Text

Duration : 48 min 37 s

Bit rate : 34 b/s

Count of elements : 325

Stream size : 12.4 KiB (0%)

Title : Nederlands

Language : Dutch

Default : No

Forced : No

Text #10

ID : 12

Format : UTF-8

Codec ID : S_TEXT/UTF8

Codec ID/Info : UTF-8 Plain Text

Duration : 48 min 37 s

Bit rate : 31 b/s

Count of elements : 408

Stream size : 11.3 KiB (0%)

Title : Norsk

Language : Norwegian

Default : No

Forced : No

Text #11

ID : 13

Format : UTF-8

Codec ID : S_TEXT/UTF8

Codec ID/Info : UTF-8 Plain Text

Duration : 48 min 37 s

Bit rate : 34 b/s

Count of elements : 406

Stream size : 12.2 KiB (0%)

Title : Português

Language : Portuguese

Default : No

Forced : No

Text #12

ID : 14

Format : UTF-8

Codec ID : S_TEXT/UTF8

Codec ID/Info : UTF-8 Plain Text

Duration : 48 min 37 s

Bit rate : 34 b/s

Count of elements : 411

Stream size : 12.3 KiB (0%)

Title : Português (Brasil)

Language : Portuguese

Default : No

Forced : No

Text #13

ID : 15

Format : UTF-8

Codec ID : S_TEXT/UTF8

Codec ID/Info : UTF-8 Plain Text

Duration : 48 min 37 s

Bit rate : 29 b/s

Count of elements : 406

Stream size : 10.6 KiB (0%)

Title : Suomi

Language : Finnish

Default : No

Forced : No

Text #14

ID : 16

Format : UTF-8

Codec ID : S_TEXT/UTF8

Codec ID/Info : UTF-8 Plain Text

Duration : 48 min 37 s

Bit rate : 33 b/s

Count of elements : 343

Stream size : 11.9 KiB (0%)

Title : Svenska

Language : Swedish

Default : No

Forced : No

We have no issue with individuals posting or re-uploading our torrents on a platform we aren’t on. However, if this is something you’d like to do, please do so in a ‘as-is’ format. We ask that you do not create a new torrent, include all descriptions you see above including the SEV logo, tags, notes and screenshots.
If you’d like to become a permanent poster on a website we don’t post to, feel free to get in contact with a Sublime Encoded Video member.

We are recruiting/training new members for SEV & seedbox providers as well as people to help out with subtitles.
As you already know, we deliver quality, so you know the standard.
If you’re interested, feel free to contact any of the team members.

The Falcon and The Winter SolDownload Torrent Magnet

#Falcon #Winter #Sol