The Falcon and the Winter Sol Full Torrent Magnet Download

Download Torrent The Falcon and the Winter Sol Movie Full in HD Result. Movie The Falcon and the Winter Sol Torrent Download full. Movie The Falcon and the Winter Sol torrent Magnet Download Full. The Falcon and the Winter Sol Full Movie Torrent Download And Magnet Download For your PC And Mobiles. Latest Movie The Falcon and the Winter Sol Download Link In Bottom.

Torrent And Magnet Links Below

General

Unique ID : 180957909301747376176510343210613052492 (0x882339C238069E7F078EA5FD18DF944C)

Complete name : /data/disk6/bonsaihd/files/downloads/The Falcon and the Winter Soldier (2021) S01EP01 720p WEBRip Dual Audio Hindi + English ESub- Shadow/The Falcon and the Winter Soldier S01 E01 WebRip 720p Hindi English AAC 5.1 x264 ESub – mkvCinemas.mkv

Format : Matroska

Format version : Version 4 / Version 2

File size : 486 MiB

Duration : 47mn 18s

Overall bit rate mode : Variable

Overall bit rate : 1 437 Kbps

Movie name : The Falcon and the Winter Soldier S01 E01 WebRip – mkvCinemas / Encoded By: mkvCinemas

Encoded date : UTC 2021-03-19 08:52:38

Writing application : mkvmerge v50.0.0 (‘Awakenings’) 64-bit

Writing library : libebml v1.4.0 + libmatroska v1.6.2

Website : mkvCinemas

Video

ID : 1

Format : AVC

Format/Info : Advanced Video Codec

Format profile : [email protected]
Format settings, CABAC : Yes

Format settings, ReFrames : 7 frames

Codec ID : V_MPEG4/ISO/AVC

Duration : 47mn 18s

Bit rate mode : Variable

Bit rate : 1 050 Kbps

Maximum bit rate : 62.5 Mbps

Width : 1 280 pixels

Height : 544 pixels

Display aspect ratio : 2.40:1

Frame rate mode : Constant

Frame rate : 24.000 fps

Color space : YUV

Chroma subsampling : 4:2:0

Bit depth : 8 bits

Scan type : Progressive

Bits/(Pixel*Frame) : 0.063

Stream size : 355 MiB (73%)

Title : mkvCinemas

Writing library : x264 core 157 r2935 545de2f

Encoding settings : cabac=1 / ref=8 / deblock=1:-1:-1 / analyse=0x3:0x113 / me=hex / subme=7 / psy=1 / psy_rd=1.00:0.15 / mixed_ref=1 / me_range=16 / chroma_me=1 / trellis=1 / 8x8dct=1 / cqm=0 / deadzone=21,11 / fast_pskip=1 / chroma_qp_offset=-3 / threads=17 / lookahead_threads=2 / sliced_threads=0 / nr=0 / decimate=1 / interlaced=0 / bluray_compat=0 / constrained_intra=0 / bframes=5 / b_pyramid=1 / b_adapt=1 / b_bias=0 / direct=1 / weightb=1 / open_gop=0 / weightp=1 / keyint=240 / keyint_min=24 / scenecut=40 / intra_refresh=0 / rc_lookahead=40 / rc=2pass / mbtree=1 / bitrate=1050 / ratetol=1.0 / qcomp=0.60 / qpmin=0 / qpmax=69 / qpstep=4 / cplxblur=20.0 / qblur=0.5 / vbv_maxrate=62500 / vbv_bufsize=78125 / nal_hrd=vbr / filler=0 / ip_ratio=1.40 / aq=1:1.00

Default : Yes

Forced : No

Audio #1

ID : 2

Format : AAC

Format/Info : Advanced Audio Codec

Format profile : LC

Codec ID : A_AAC

Duration : 47mn 18s

Bit rate : 192 Kbps

Channel(s) : 6 channels

Channel positions : Front: L C R, Side: L R, LFE

Sampling rate : 48.0 KHz

Frame rate : 46.875 fps (1024 spf)

Compression mode : Lossy

Delay relative to video : 9ms

Stream size : 64.8 MiB (13%)

Title : mkvCinemas

Language : Hindi

Default : Yes

Forced : No

Audio #2

ID : 3

Format : AAC

Format/Info : Advanced Audio Codec

Format profile : LC

Codec ID : A_AAC

Duration : 47mn 18s

Bit rate : 192 Kbps

Channel(s) : 6 channels

Channel positions : Front: L C R, Side: L R, LFE

Sampling rate : 48.0 KHz

Frame rate : 46.875 fps (1024 spf)

Compression mode : Lossy

Delay relative to video : 9ms

Stream size : 64.8 MiB (13%)

Title : mkvCinemas

Language : English

Default : No

Forced : No

Text #1

ID : 4

Format : UTF-8

Codec ID : S_TEXT/UTF8

Codec ID/Info : UTF-8 Plain Text

Duration : 42mn 35s

Bit rate : 66 bps

Count of elements : 674

Stream size : 20.9 KiB (0%)

Title : mkvCinemas

Language : English

Default : Yes

Forced : No

Text #2

ID : 5

Format : UTF-8

Codec ID : S_TEXT/UTF8

Codec ID/Info : UTF-8 Plain Text

Duration : 45mn 48s

Bit rate : 54 bps

Count of elements : 565

Stream size : 18.2 KiB (0%)

Language : Indonesian

Default : No

Forced : No

The Falcon and the Winter SolDownload Torrent Magnet

#Falcon #Winter #Sol