The.Falcon.and.The.Winter.Sol Full Torrent Magnet Download

Download Torrent The.Falcon.and.The.Winter.Sol Movie Full in HD Result. Movie The.Falcon.and.The.Winter.Sol Torrent Download full. Movie The.Falcon.and.The.Winter.Sol torrent Magnet Download Full. The.Falcon.and.The.Winter.Sol Full Movie Torrent Download And Magnet Download For your PC And Mobiles. Latest Movie The.Falcon.and.The.Winter.Sol Download Link In Bottom.

Torrent And Magnet Links Below

Code:

nfo «
Video

ID : 1

Format : HEVC

Format/Info : High Efficiency Video Coding

Format profile : Main [email protected]@Main

HDR format : Dolby Vision, Version 1.0, dvhe.05.06, BL+RPU

Codec ID : dvhe

Codec ID/Info : High Efficiency Video Coding with Dolby Vision

Duration : 47 min 18 s

Bit rate : 21.6 Mb/s

Width : 3 840 pixels

Height : 2 160 pixels

Display aspect ratio : 16:9

Frame rate mode : Constant

Frame rate : 24.000 FPS

Color space : YUV

Chroma subsampling : 4:2:0 (Type 0)

Bit depth : 10 bits

Bits/(Pixel*Frame) : 0.108

Stream size : 7.13 GiB (97%)

Default : Yes

Alternate group : 1

Tagged date : UTC 2021-05-06 13:41:24

Color range : Full

Codec configuration box : hvcC+dvcC

Audio

ID : 2

Format : E-AC-3 JOC

Format/Info : Enhanced AC-3 with Joint Object Coding

Commercial name : Dolby Digital Plus with Dolby Atmos

Codec ID : ec-3

Duration : 47 min 18 s

Source duration : 47 min 15 s

Bit rate mode : Constant

Bit rate : 768 kb/s

Maximum bit rate : 811 kb/s

Channel(s) : 6 channels

Channel layout : L R C LFE Ls Rs

Sampling rate : 48.0 kHz

Frame rate : 31.250 FPS (1536 SPF)

Compression mode : Lossy

Stream size : 260 MiB (3%)

Source stream size : 260 MiB (3%)

Language : English

Service kind : Complete Main

Default : Yes

Alternate group : 2

Tagged date : UTC 2021-05-06 13:41:24

Complexity index : Not present / 16

Number of dynamic objects : 15

Bed channel count : 1 channel

Bed channel configuration : LFE

Text #1

ID : 3

Format : Timed Text

Codec ID : tx3g

Duration : 47 min 14 s

Bit rate mode : Variable

Bit rate : 53 b/s

Stream size : 18.4 KiB (0%)

Title : Svenska

Language : Swedish

Forced : No

Tagged date : UTC 2021-05-06 13:41:24

Text #2

ID : 4

Format : Timed Text

Codec ID : tx3g

Duration : 47 min 14 s

Bit rate mode : Variable

Bit rate : 50 b/s

Stream size : 17.2 KiB (0%)

Title : Suomi

Language : Finnish

Forced : No

Tagged date : UTC 2021-05-06 13:41:24

Text #3

ID : 5

Format : Timed Text

Codec ID : tx3g

Duration : 47 min 14 s

Bit rate mode : Variable

Bit rate : 57 b/s

Stream size : 19.8 KiB (0%)

Title : Português (Brasil)

Language : Portuguese

Forced : No

Tagged date : UTC 2021-05-06 13:41:24

Text #4

ID : 6

Format : Timed Text

Codec ID : tx3g

Duration : 47 min 14 s

Bit rate mode : Variable

Bit rate : 54 b/s

Stream size : 18.6 KiB (0%)

Title : Português

Language : Portuguese

Forced : No

Tagged date : UTC 2021-05-06 13:41:24

Text #5

ID : 7

Format : Timed Text

Codec ID : tx3g

Duration : 47 min 14 s

Bit rate mode : Variable

Bit rate : 49 b/s

Stream size : 17.0 KiB (0%)

Title : Norsk

Language : Norwegian

Forced : No

Tagged date : UTC 2021-05-06 13:41:24

Text #6

ID : 8

Format : Timed Text

Codec ID : tx3g

Duration : 47 min 14 s

Bit rate mode : Variable

Bit rate : 50 b/s

Stream size : 17.5 KiB (0%)

Title : Nederlands

Language : Dutch

Forced : No

Tagged date : UTC 2021-05-06 13:41:24

Text #7

ID : 9

Format : Timed Text

Codec ID : tx3g

Duration : 47 min 14 s

Bit rate mode : Variable

Bit rate : 52 b/s

Stream size : 18.1 KiB (0%)

Title : Italiano

Language : Italian

Forced : No

Tagged date : UTC 2021-05-06 13:41:24

Text #8

ID : 10

Format : Timed Text

Codec ID : tx3g

Duration : 44 min 43 s

Bit rate mode : Variable

Bit rate : 54 b/s

Stream size : 17.8 KiB (0%)

Title : Français (Canadien)

Language : French

Forced : No

Tagged date : UTC 2021-05-06 13:41:24

Text #9

ID : 11

Format : Timed Text

Codec ID : tx3g

Duration : 47 min 14 s

Bit rate mode : Variable

Bit rate : 52 b/s

Stream size : 18.0 KiB (0%)

Title : Français

Language : French

Forced : No

Tagged date : UTC 2021-05-06 13:41:24

Text #10

ID : 12

Format : Timed Text

Codec ID : tx3g

Duration : 47 min 14 s

Bit rate mode : Variable

Bit rate : 56 b/s

Stream size : 19.5 KiB (0%)

Title : Español (Latinoamericano)

Language : Spanish

Forced : No

Tagged date : UTC 2021-05-06 13:41:24

Text #11

ID : 13

Format : Timed Text

Codec ID : tx3g

Duration : 47 min 14 s

Bit rate mode : Variable

Bit rate : 57 b/s

Stream size : 19.7 KiB (0%)

Title : Español

Language : Spanish

Forced : No

Tagged date : UTC 2021-05-06 13:41:24

Text #12

ID : 14

Format : Timed Text

Codec ID : tx3g

Duration : 42 min 38 s

Bit rate mode : Variable

Bit rate : 75 b/s

Stream size : 23.3 KiB (0%)

Title : English (SDH)

Language : English

Forced : No

Tagged date : UTC 2021-05-06 13:41:24

Text #13

ID : 15

Format : Timed Text

Codec ID : tx3g

Duration : 47 min 14 s

Bit rate mode : Variable

Bit rate : 51 b/s

Stream size : 17.8 KiB (0%)

Title : German

Language : German

Forced : No

Tagged date : UTC 2021-05-06 13:41:24

Text #14

ID : 16

Format : Timed Text

Codec ID : tx3g

Duration : 47 min 14 s

Bit rate mode : Variable

Bit rate : 48 b/s

Stream size : 16.8 KiB (0%)

Title : Dansk

Language : Danish

Forced : No

Tagged date : UTC 2021-05-06 13:41:24

Quote:

Screenshots can’t be made for this release because there is no tool to make screenshots out of a mixed dolby vision file.

There is a very limited amount of devices that can play dv muxed this way so keep that in mind before downloading.

The.Falcon.and.The.Winter.SolDownload Torrent Magnet

#TheFalconandTheWinterSol