The.Dictator.2012.Theatrical. Full Torrent Magnet Download

Download Torrent The.Dictator.2012.Theatrical. Movie Full in HD Result. Movie The.Dictator.2012.Theatrical. Torrent Download full. Movie The.Dictator.2012.Theatrical. torrent Magnet Download Full. The.Dictator.2012.Theatrical. Full Movie Torrent Download And Magnet Download For your PC And Mobiles. Latest Movie The.Dictator.2012.Theatrical. Download Link In Bottom.

Torrent And Magnet Links Below

The.Dictator.2012.Theatrical.1080p.BluRay.[Org.DDP5.1-Hindi+DDP5.1-English].ESub.HEVC~The.PunisheR.mkv

MediaInfos:
General

Unique ID                                : 317098332269146262994103732441936294238 (0xEE8EEAD701AFE86ED8B2C2219D53F15E)

Complete name                            : The.Dictator.2012.Theatrical.1080p.BluRay.[Org.DDP5.1-Hindi+DDP5.1-English].ESub.HEVC~The.PunisheR.mkv

Format                                   : Matroska

Format version                           : Version 4 / Version 2

File size                                : 2.30 GiB

Duration                                 : 1 h 24 min

Overall bit rate                         : 3 913 kb/s

Description                              : Encoded By – The.PunisheR

Encoded date                             : UTC 2021-03-15 17:40:49

Writing application                      : mkvmerge v55.0.0 (‘Waiting For Space’) 64-bit

Writing library                          : libebml v1.4.2 + libmatroska v1.6.4 / Lavf57.83.100

Video

ID                                       : 1

Format                                   : HEVC

Format/Info                              : High Efficiency Video Coding

Format profile                           : [email protected]@Main

Codec ID                                 : V_MPEGH/ISO/HEVC

Duration                                 : 1 h 23 min

Bit rate                                 : 2 667 kb/s

Width                                    : 1 920 pixels

Height                                   : 800 pixels

Display aspect ratio                     : 2.40:1

Frame rate mode                          : Constant

Frame rate                               : 23.976 (24000/1001) FPS

Color space                              : YUV

Chroma subsampling                       : 4:2:0

Bit depth                                : 8 bits

Bits/(Pixel*Frame)                       : 0.072

Stream size                              : 1.55 GiB (67%)

Title                                    : 1080p / 8bit / BluRay / HEVC ~ The.PunisheR

Language                                 : English

Default                                  : Yes

Forced                                   : No

Color range                              : Limited

Color primaries                          : BT.709

Transfer characteristics                 : BT.709

Matrix coefficients                      : BT.709

Audio #1

ID                                       : 2

Format                                   : E-AC-3

Format/Info                              : Enhanced Audio Coding 3

Codec ID                                 : A_EAC3

Duration                                 : 1 h 24 min

Bit rate mode                            : Constant

Bit rate                                 : 640 kb/s

Channel(s)                               : 6 channels

Channel positions                        : Front: L C R, Side: L R, LFE

Sampling rate                            : 48.0 kHz

Frame rate                               : 187.500 FPS (256 SPF)

Compression mode                         : Lossy

Stream size                              : 386 MiB (16%)

Title                                    : Org. NF DD+ 5.1 / 640kbps / 48kHz ~ The.PunisheR

Language                                 : Hindi

Service kind                             : Complete Main

Default                                  : Yes

Forced                                   : Yes

Audio #2

ID                                       : 3

Format                                   : E-AC-3

Format/Info                              : Enhanced Audio Coding 3

Codec ID                                 : A_EAC3

Duration                                 : 1 h 23 min

Bit rate mode                            : Constant

Bit rate                                 : 640 kb/s

Channel(s)                               : 6 channels

Channel positions                        : Front: L C R, Side: L R, LFE

Sampling rate                            : 48.0 kHz

Frame rate                               : 187.500 FPS (256 SPF)

Compression mode                         : Lossy

Stream size                              : 381 MiB (16%)

Title                                    : DD+ 5.1 / 640kbps / 48kHz ~ The.PunisheR

Language                                 : English

Service kind                             : Complete Main

Default                                  : No

Forced                                   : No

Text

ID                                       : 4

Format                                   : UTF-8

Codec ID                                 : S_TEXT/UTF8

Codec ID/Info                            : UTF-8 Plain Text

Duration                                 : 1 h 15 min

Bit rate                                 : 79 b/s

Count of elements                        : 1315

Stream size                              : 44.2 KiB (0%)

Title                                    : ESub – SRT

Language                                 : English

Default                                  : No

Forced                                   : No

Menu

00:00:00.000                             : :Chapter 1

00:07:12.098                             : :Chapter 2

00:11:15.675                             : :Chapter 3

00:16:49.342                             : :Chapter 4

00:21:19.612                             : :Chapter 5

00:26:38.263                             : :Chapter 6

00:32:15.267                             : :Chapter 7

00:38:17.295                             : :Chapter 8

00:42:37.555                             : :Chapter 9

00:48:47.925                             : :Chapter 10

00:55:38.335                             : :Chapter 11

01:01:48.705                             : :Chapter 12

01:06:47.337                             : :Chapter 13

01:13:32.742                             : :Chapter 14

Screenshots:




Quote:


Just Enjoy….xD

The.Dictator.2012.Theatrical.Download Torrent Magnet

#TheDictator2012Theatrical