The.Departed.2006.BRRip.XviD. Full Torrent Magnet Download

Download Torrent The.Departed.2006.BRRip.XviD. Movie Full in HD Result. Movie The.Departed.2006.BRRip.XviD. Torrent Download full. Movie The.Departed.2006.BRRip.XviD. torrent Magnet Download Full. The.Departed.2006.BRRip.XviD. Full Movie Torrent Download And Magnet Download For your PC And Mobiles. Latest Movie The.Departed.2006.BRRip.XviD. Download Link In Bottom.

Torrent And Magnet Links Below

The.Departed.2006.BRRip.XviD.B4ND1T69

Director: Martin Scorsese

Writers: William Monahan (screenplay), Alan Mak

Stars: Leonardo DiCaprio, Matt Damon, Jack Nicholson

Plot/Story:

An undercover cop and a mole in the police attempt to identify each other while infiltrating an Irish gang in South Boston.

General

Complete name : The.Departed.2006.BRRip.XviD.B4ND1T69.avi

Format : AVI

Format/Info : Audio Video Interleave

File size : 1.38 GiB

Duration : 2 h 31 min

Overall bit rate : 1 307 kb/s

Subtitles : Yes…Included(HI)

Video

ID : 0

Format : MPEG-4 Visual

Format profile : Advanced [email protected]
Format settings, BVOP : 2

Format settings, QPel : No

Format settings, GMC : No warppoints

Format settings, Matrix : Default (H.263)

Codec ID : XVID

Codec ID/Hint : XviD

Duration : 2 h 31 min

Bit rate : 1 166 kb/s

Width : 720 pixels

Height : 304 pixels

Display aspect ratio : 2.35:1

Frame rate : 23.976 (24000/1001) FPS

Color space : YUV

Chroma subsampling : 4:2:0

Bit depth : 8 bits

Scan type : Progressive

Compression mode : Lossy

Bits/(Pixel*Frame) : 0.222

Stream size : 1.23 GiB (89%)

Writing library : XviD 64

Audio

ID : 1

Format : MPEG Audio

Format version : Version 1

Format profile : Layer 3

Codec ID : 55

Codec ID/Hint : MP3

Duration : 2 h 31 min

Bit rate mode : Constant

Bit rate : 128 kb/s

Channel(s) : 2 channels

Sampling rate : 48.0 kHz

Compression mode : Lossy

Stream size : 139 MiB (10%)

Alignment : Aligned on interleaves

Interleave, duration : 24 ms (0.58 video frame)

Screenshots:









Please Seed For As Long As Possible

Or At Least 1:1 Ratio…Thanks

Enjoy Peeps

The.Departed.2006.BRRip.XviD.Download Torrent Magnet

#TheDeparted2006BRRipXviD